<?xml version="1.0" standalone="no"?>
<!DOCTYPE svg PUBLIC "-//W3C//DTD SVG 1.1//EN" "http://www.w3.org/Graphics/SVG/1.1/DTD/svg11.dtd" >
<svg xmlns="http://www.w3.org/2000/svg">
<metadata>
This is a custom SVG webfont generated by Font Squirrel.
Copyright   : Copyright c 2011 by Red Hat Inc All rights reserved
Designer    : Delve Withrington
Foundry     : Delve Fonts
Foundry URL : httpwwwredhatcom
</metadata>
<defs>
<font id="webfontLTZe4IYH" horiz-adv-x="1157" >
<font-face units-per-em="2048" ascent="1536" descent="-512" />
<missing-glyph horiz-adv-x="471" />
<glyph unicode="&#xfb01;" horiz-adv-x="1194" d="M440 862v-862h-213v862h-155v185h155v167q0 72 21 119.5t54.5 75t76.5 38.5t88 11q62 0 112 -13t97 -36v-176q-48 20 -83 28.5t-67 8.5q-26 0 -42.5 -7t-26.5 -20t-13.5 -30t-3.5 -37v-129h236v-185h-236zM825 0v1047h213v-1047h-213zM932 1210q-27 0 -50.5 10t-41 27.5 t-27.5 41t-10 50.5t10 50.5t27.5 41t41 27.5t50.5 10t50.5 -10t41 -27.5t27.5 -41t10 -50.5t-10 -50.5t-27.5 -41t-41 -27.5t-50.5 -10z" />
<glyph unicode="&#xfb02;" horiz-adv-x="1196" d="M440 862v-862h-213v862h-155v185h155v167q0 72 21 119.5t54.5 75t76.5 38.5t88 11q62 0 112 -13t97 -36v-176q-48 20 -83 28.5t-67 8.5q-26 0 -42.5 -7t-26.5 -20t-13.5 -30t-3.5 -37v-129h236v-185h-236zM819 0v1378l213 101v-1479h-213z" />
<glyph unicode=" "  horiz-adv-x="471" />
<glyph unicode="&#x09;" horiz-adv-x="471" />
<glyph unicode="&#xa0;" horiz-adv-x="471" />
<glyph unicode="!" horiz-adv-x="565" d="M236 395l-60 609v454h213v-454l-59 -609h-94zM283 -25q-33 0 -61 12t-49 32.5t-32.5 47.5t-11.5 58t11.5 58.5t32.5 48t49 32.5t61 12q32 0 60.5 -12t49.5 -32.5t33 -48t12 -58.5t-12 -58t-33 -47.5t-49.5 -32.5t-60.5 -12z" />
<glyph unicode="&#x22;" horiz-adv-x="860" d="M92 1434h266l-43 -574h-180zM502 1434h266l-43 -574h-180z" />
<glyph unicode="#" horiz-adv-x="1393" d="M260 0l59 387h-233l27 176h233l51 338h-233l26 176h234l55 357h183l-56 -357h285l55 357h182l-55 -357h234l-27 -176h-233l-52 -338h234l-27 -176h-233l-60 -387h-182l59 387h-284l-60 -387h-182zM528 563h285l51 338h-284z" />
<glyph unicode="$" horiz-adv-x="1196" d="M813 1108q-12 31 -33.5 57.5t-51.5 46t-68.5 30.5t-86.5 11q-94 0 -147 -45t-53 -127q0 -51 30 -86.5t79.5 -62.5t112 -49.5t128.5 -49t128.5 -61t112 -84t79.5 -119t30 -166.5q0 -90 -28.5 -161.5t-78.5 -124.5t-118 -86.5t-146 -46.5v-185h-213v187 q-142 26 -242.5 114.5t-144.5 223.5l201 73q21 -48 51 -88t69 -68.5t86 -44.5t101 -16q55 0 99.5 14t76 42t49 69.5t17.5 95.5q0 64 -30 107.5t-79.5 75.5t-112 56l-128.5 49t-128.5 56t-112 76t-79.5 108t-30 154q0 66 22 126.5t65 109.5t106 83t144 48v166h213v-168 q61 -12 111.5 -37.5t89.5 -61t65.5 -80t41.5 -95.5z" />
<glyph unicode="%" horiz-adv-x="1743" d="M428 729q-92 0 -156 33t-104 85t-58 117t-18 130q0 60 17.5 124t57.5 117.5t104 88t157 34.5q92 0 156 -32.5t104 -85t58 -117.5t18 -129q0 -59 -17 -123.5t-56.5 -118t-104 -88.5t-158.5 -35zM428 893q42 0 73 16t51.5 43.5t30 64t9.5 77.5q0 43 -10 80t-30.5 63.5 t-51 41.5t-72.5 15t-73 -16t-51.5 -43t-30 -63.5t-9.5 -77.5q0 -44 10 -81t30.5 -63.5t51 -41.5t72.5 -15zM479 -25h-194l979 1483h194zM1315 -25q-92 0 -156 33t-104 85t-58 117t-18 130q0 60 17.5 124.5t57.5 118t104 88t157 34.5q92 0 156 -33t104 -85t58 -117.5 t18 -129.5q0 -59 -17 -123.5t-56.5 -118t-104 -88.5t-158.5 -35zM1315 139q42 0 73 16t51 43.5t30 64t10 77.5q0 44 -10 81t-30.5 63.5t-51.5 41.5t-72 15q-42 0 -73 -16t-51.5 -43t-30 -63.5t-9.5 -78.5q0 -44 10 -81t30.5 -63.5t51 -41.5t72.5 -15z" />
<glyph unicode="&#x26;" horiz-adv-x="1436" d="M1106 0l-123 152q-84 -81 -192 -129t-242 -48q-94 0 -172 29t-134.5 81.5t-88 127t-31.5 166.5q0 85 27 151t71.5 117.5t102 92t118.5 75.5q-37 46 -64.5 85t-46 76.5t-27.5 75.5t-9 83q0 76 27.5 136t75 101.5t111.5 63.5t138 22t137 -24.5t109.5 -68t73 -103.5 t26.5 -132q0 -65 -20 -117.5t-54 -95t-79 -77.5t-95 -66l226 -270q18 43 28.5 94t10.5 96h207q-2 -90 -27.5 -185t-73.5 -181l273 -328h-283zM578 176q83 0 152.5 37t123.5 96l-289 357q-45 -27 -83.5 -56t-67.5 -62.5t-45.5 -72.5t-16.5 -86q0 -48 16 -87t45.5 -67 t71 -43.5t93.5 -15.5zM500 1137q0 -26 10.5 -53t28 -54t40.5 -55l48 -57q34 21 63 43t51 46.5t34.5 53t12.5 61.5q0 36 -11.5 63.5t-32 46t-47 28.5t-56.5 10q-31 0 -57 -9.5t-44.5 -27t-29 -42t-10.5 -54.5z" />
<glyph unicode="'" horiz-adv-x="451" d="M92 1434h266l-43 -574h-180z" />
<glyph unicode="(" horiz-adv-x="707" d="M393 -266q-47 61 -92 143t-80 187t-56.5 234t-21.5 284t23.5 288t61.5 243.5t87.5 196.5t100.5 148h209q-21 -24 -48.5 -68t-57.5 -104t-59 -136t-52.5 -165t-37.5 -190.5t-14 -212.5q0 -168 28.5 -307.5t68 -247.5t81.5 -182t68 -111h-209z" />
<glyph unicode=")" horiz-adv-x="707" d="M104 -266q26 37 68 111t81.5 182t68 247.5t28.5 307.5q0 111 -14 212.5t-37 190.5t-52 165t-59 136t-58 103.5t-48 68.5h209q51 -62 100 -148t87.5 -196.5t61.5 -243.5t23 -288t-21.5 -284t-56.5 -234t-80 -187t-92 -143h-209z" />
<glyph unicode="*" horiz-adv-x="1085" d="M590 791l-47 141l-47 -141l-142 -191l-153 113l139 190l115 86h-142l-211 70l60 182l211 -67l112 -80l-39 133v231h193v-231l-41 -135l115 82l211 67l59 -182l-211 -70h-143l116 -86l140 -190l-154 -113z" />
<glyph unicode="+" horiz-adv-x="1290" d="M752 600v-379h-213v379h-375v205h375v379h213v-379h374v-205h-374z" />
<glyph unicode="," horiz-adv-x="457" d="M84 -238q14 12 33.5 34.5t38.5 51t33.5 61t19.5 66.5q-27 3 -52 14t-43.5 30t-30 44t-11.5 56q0 35 12.5 63.5t33 49t48 31.5t57.5 11q32 0 61.5 -11.5t52 -34.5t35.5 -58t13 -82q0 -59 -17.5 -115t-47.5 -104.5t-70.5 -89t-85.5 -68.5z" />
<glyph unicode="-" horiz-adv-x="809" d="M154 506v205h501v-205h-501z" />
<glyph unicode="." horiz-adv-x="457" d="M227 -25q-33 0 -61 12t-48.5 32.5t-32 47.5t-11.5 58t11.5 58.5t32 48t48.5 32.5t61 12q32 0 60.5 -12t49.5 -32.5t33.5 -48t12.5 -58.5t-12.5 -58t-33.5 -47.5t-49.5 -32.5t-60.5 -12z" />
<glyph unicode="/" horiz-adv-x="1010" d="M-31 -266l805 1724h215l-805 -1724h-215z" />
<glyph unicode="0" horiz-adv-x="1331" d="M666 -25q-99 0 -175.5 30.5t-133.5 83t-95.5 124t-62.5 154t-34.5 172t-10.5 178.5q0 82 9.5 169t33 169.5t61.5 155.5t95 128t134 87t179 32q99 0 175 -30.5t133 -83t96 -124t63 -154t34.5 -172t10.5 -177.5q0 -82 -10 -169.5t-33 -169.5t-61 -155.5t-95 -128.5 t-134.5 -87t-178.5 -32zM666 180q59 0 103 22.5t76.5 61.5t53.5 91t34 111.5t18 123.5t5 127q0 100 -13 196t-46 171.5t-89 122t-142 46.5q-59 0 -103.5 -22.5t-77 -61t-53.5 -90.5t-34 -111.5t-18 -124t-5 -126.5q0 -66 5.5 -132t18.5 -125.5t35 -110.5t54.5 -88.5t76 -59 t101.5 -21.5z" />
<glyph unicode="1" horiz-adv-x="827" d="M307 0v1112h-235v158q52 0 97 8t81.5 27t63.5 50.5t42 78.5h164v-1434h-213z" />
<glyph unicode="2" horiz-adv-x="1262" d="M156 1151q26 68 72 124.5t109 97t140 63t164 22.5q109 0 196 -31.5t147.5 -88t93 -134.5t32.5 -170q0 -91 -27.5 -159t-76.5 -121.5t-117.5 -97t-149.5 -85.5q-141 -74 -230.5 -161.5t-115.5 -200.5h729v-209h-989q0 147 43 265t115 211t165 163t193 121q46 24 89.5 51 t77 60.5t53.5 75t20 93.5q0 45 -18.5 83.5t-51.5 67.5t-79 45.5t-101 16.5q-117 0 -186 -51t-103 -139z" />
<glyph unicode="3" horiz-adv-x="1239" d="M604 -25q-95 0 -174.5 23.5t-142.5 67t-110 104t-77 135.5l199 80q25 -56 58.5 -95t73.5 -63.5t84 -35.5t89 -11q58 0 109 13.5t89 42t60.5 72.5t22.5 106q0 47 -15.5 88.5t-49 73t-85.5 49.5t-125 18h-110v205h110q50 0 90.5 14.5t69.5 40t45 61t16 78.5 q0 100 -57.5 155.5t-169.5 55.5q-51 0 -91 -13.5t-70.5 -35.5t-53.5 -51.5t-39 -60.5l-198 75q25 65 67.5 118.5t100 92t130.5 59.5t160 21q97 0 178.5 -31.5t140.5 -85.5t91.5 -125.5t32.5 -152.5q0 -100 -45.5 -181.5t-139.5 -129.5q54 -22 98 -53.5t75 -72.5t48 -92 t17 -112q0 -108 -38 -191.5t-105 -140.5t-159 -86t-200 -29z" />
<glyph unicode="4" horiz-adv-x="1325" d="M803 0v326h-772v137l733 971h252v-912h186v-196h-186v-326h-213zM803 522v654l-490 -654h490z" />
<glyph unicode="5" horiz-adv-x="1241" d="M164 725l49 709h805v-205h-606l-31 -365q45 32 115.5 55t158.5 23q115 0 200.5 -39t142 -103.5t84.5 -147.5t28 -171q0 -115 -41 -208.5t-113.5 -159.5t-173.5 -102t-221 -36q-87 0 -156.5 12t-124 31t-93.5 42.5t-64 45.5l127 170q25 -17 54 -34t66 -31t83.5 -22.5 t107.5 -8.5q74 0 134.5 21.5t103.5 60.5t66.5 93.5t23.5 119.5q0 64 -19 113t-54 82t-83.5 50t-107.5 17q-75 0 -131.5 -26t-98.5 -72z" />
<glyph unicode="6" horiz-adv-x="1229" d="M631 -25q-126 0 -219.5 42.5t-155.5 117.5t-92.5 176.5t-30.5 218.5q0 179 46.5 333.5t143 275t244.5 202.5t351 117v-205q-89 -14 -172.5 -47t-153.5 -88.5t-123.5 -134.5t-81.5 -184q21 20 50 38.5t66.5 32.5t82.5 22.5t96 8.5q97 0 179 -33.5t140.5 -95t91.5 -147 t33 -189.5q0 -103 -36 -188t-101 -145.5t-156 -94t-202 -33.5zM631 180q60 0 110.5 17t86.5 50t56.5 80.5t20.5 108.5q0 62 -20.5 110.5t-56.5 81.5t-86.5 50.5t-110.5 17.5t-111 -17.5t-87.5 -50.5t-57.5 -81.5t-21 -110.5q0 -61 21 -108.5t57.5 -80.5t87.5 -50t111 -17z " />
<glyph unicode="7" horiz-adv-x="1100" d="M371 0q1 183 28 343.5t78.5 308.5t127.5 288.5t177 284.5h-731v209h967v-232q-80 -93 -143 -196.5t-110 -210.5t-80 -215t-53.5 -210.5t-30 -196.5t-9.5 -173h-221z" />
<glyph unicode="8" horiz-adv-x="1260" d="M629 -25q-111 0 -202.5 33t-157 92.5t-101 141t-35.5 178.5q0 66 17.5 121.5t49 100.5t76 80.5t97.5 61.5q-85 48 -131.5 121t-46.5 178q0 80 31 148.5t88 119t137 79t178 28.5t178.5 -28.5t137.5 -79t88.5 -119t31.5 -148.5q0 -103 -47 -176t-133 -123q54 -26 98 -61.5 t76 -80.5t49.5 -100.5t17.5 -121.5q0 -97 -36 -178.5t-101 -141t-157 -92.5t-203 -33zM629 180q60 0 110.5 18t87 50.5t57.5 78t21 99.5q0 52 -21 98.5t-57.5 81t-87 54.5t-110.5 20q-61 0 -111.5 -20t-87 -54.5t-56.5 -81t-20 -98.5q0 -54 20 -99.5t56.5 -78t87 -50.5 t111.5 -18zM629 885q48 0 88.5 14.5t69.5 40t45 59.5t16 72q0 42 -16 75.5t-45 57t-69.5 36.5t-88.5 13t-88 -13t-68.5 -36.5t-44.5 -57t-16 -75.5q0 -38 16 -72t44.5 -59.5t68.5 -40t88 -14.5z" />
<glyph unicode="9" horiz-adv-x="1229" d="M352 193q82 4 161 26.5t146 72.5t116.5 133.5t72.5 211.5q-16 -18 -42.5 -37t-62.5 -34t-81.5 -24.5t-98.5 -9.5q-100 0 -184.5 33t-146 93.5t-96 146.5t-34.5 192q0 103 36.5 188t102 145.5t157 94t202.5 33.5q129 0 222.5 -42.5t154.5 -116.5t90 -176t29 -220 q0 -201 -45 -367.5t-136.5 -288t-232 -192.5t-330.5 -80v218zM598 750q61 0 111.5 17t86 49.5t55 78.5t19.5 104q0 55 -20 100t-56 76.5t-85.5 48.5t-108.5 17q-60 0 -110 -17t-86 -48.5t-56 -77t-20 -101.5q0 -59 19 -105t54.5 -77.5t85 -48t111.5 -16.5z" />
<glyph unicode=":" horiz-adv-x="457" d="M227 690q-33 0 -61 12t-48.5 32.5t-32 47.5t-11.5 58t11.5 58.5t32 48t48.5 32.5t61 12q32 0 60.5 -12t49.5 -32.5t33.5 -48t12.5 -58.5t-12.5 -58t-33.5 -47.5t-49.5 -32.5t-60.5 -12zM227 -25q-33 0 -61 12t-48.5 32.5t-32 47.5t-11.5 58t11.5 58.5t32 48t48.5 32.5 t61 12q32 0 60.5 -12t49.5 -32.5t33.5 -48t12.5 -58.5t-12.5 -58t-33.5 -47.5t-49.5 -32.5t-60.5 -12z" />
<glyph unicode=";" horiz-adv-x="457" d="M225 690q-33 0 -61 12t-48.5 32.5t-32 47.5t-11.5 58t11.5 58.5t32 48t48.5 32.5t61 12q32 0 60.5 -12t49.5 -32.5t33.5 -48t12.5 -58.5t-12.5 -58t-33.5 -47.5t-49.5 -32.5t-60.5 -12zM84 -238q14 12 33.5 34.5t38.5 51t33.5 61t19.5 66.5q-27 3 -52 14t-43.5 30t-30 44 t-11.5 56q0 35 12.5 63.5t33 49t48 31.5t57.5 11q32 0 61.5 -11.5t52 -34.5t35.5 -58t13 -82q0 -59 -17.5 -115t-47.5 -104.5t-70.5 -89t-85.5 -68.5z" />
<glyph unicode="&#x3c;" horiz-adv-x="1290" d="M1126 221l-962 391v181l962 391v-215l-671 -267l671 -266v-215z" />
<glyph unicode="=" horiz-adv-x="1290" d="M164 401v205h962v-205h-962zM164 799v205h962v-205h-962z" />
<glyph unicode="&#x3e;" horiz-adv-x="1290" d="M1126 612l-962 -391v215l672 266l-672 267v215l962 -391v-181z" />
<glyph unicode="?" horiz-adv-x="1026" d="M387 389v41q0 73 15 128t40 97.5t57 75.5t65 61l65 54.5t57 56.5t40 66t15 84q0 44 -14.5 81.5t-43 64.5t-70.5 42.5t-97 15.5q-125 0 -193.5 -72.5t-68.5 -205.5h-213q0 112 35 201t98 150.5t150.5 94.5t191.5 33q107 0 188.5 -31t137 -85.5t84 -128.5t28.5 -160 q0 -84 -26 -142t-65.5 -102.5t-85.5 -81.5t-85.5 -78.5t-65.5 -93.5t-26 -127v-39h-213zM492 -25q-33 0 -61.5 12t-49 32.5t-32 47.5t-11.5 58t11.5 58.5t32 48t49 32.5t61.5 12q32 0 60.5 -12t49.5 -32.5t33 -48t12 -58.5t-12 -58t-33 -47.5t-49.5 -32.5t-60.5 -12z" />
<glyph unicode="@" horiz-adv-x="1677" d="M1069 -10q-98 -15 -217 -15q-158 0 -292 47.5t-231 138.5t-151.5 224.5t-54.5 304.5q0 113 26.5 213.5t75.5 186t117 153.5t151.5 116t179 73.5t199.5 25.5q156 0 282 -48.5t215 -132.5t137 -196t48 -239q0 -111 -31.5 -205t-85 -161.5t-123.5 -105.5t-147 -38 q-26 0 -51 8t-45 23.5t-34.5 38t-18.5 51.5q-42 -66 -103 -97.5t-137 -31.5q-66 0 -120.5 25.5t-93 71.5t-60 110.5t-21.5 142.5q0 77 26.5 153t75.5 136t117 97.5t152 37.5q68 0 119.5 -28t83.5 -91l16 92h182l-65 -346l-20.5 -114t-8.5 -74q0 -29 9 -40.5t26 -11.5 q34 0 67 28t59.5 76.5t43 113t16.5 137.5q0 94 -34 176.5t-98.5 143t-157.5 95.5t-211 35q-126 0 -231 -46.5t-180 -127.5t-117 -191t-42 -237q0 -129 37.5 -230.5t108.5 -171t173 -106.5t230 -37q69 0 132 7.5t120 21.5zM809 500q47 0 84 23t63 59t40 81t14 89 q0 77 -35.5 123.5t-104.5 46.5q-44 0 -81 -20t-64 -54.5t-42 -79.5t-15 -96q0 -78 37.5 -125t103.5 -47z" />
<glyph unicode="A" horiz-adv-x="1425" d="M1118 0l-114 330h-580l-117 -330h-221l518 1434h219l516 -1434h-221zM764 1006l-26.5 79t-22.5 82q-10 -37 -23.5 -81.5t-25.5 -79.5l-177 -488h449z" />
<glyph unicode="B" horiz-adv-x="1364" d="M184 1434h543q128 0 215 -32.5t140 -86t75.5 -122.5t22.5 -142q0 -90 -49 -169.5t-148 -127.5q67 -24 114 -60.5t77 -80.5t43.5 -93.5t13.5 -99.5q0 -73 -24.5 -148t-80.5 -135.5t-146.5 -98.5t-221.5 -38h-574v1434zM774 197q71 0 117.5 19t73.5 49.5t38 68.5t11 76 q0 45 -13 87.5t-47 75t-92.5 52.5t-148.5 20h-316v-448h377zM692 842q67 0 118 14.5t85 41t51 62.5t17 80q0 35 -9 70t-34.5 63.5t-70 46t-116.5 17.5h-336v-395h295z" />
<glyph unicode="C" horiz-adv-x="1331" d="M729 -25q-111 0 -198.5 30.5t-153.5 83t-112.5 124t-75.5 154t-42.5 172t-13.5 178.5q0 82 13.5 169t43 169.5t76.5 155.5t113 128t153 87t197 32q101 0 182 -24.5t141.5 -64.5t101.5 -91t63 -104l-195 -91q-26 41 -54.5 72.5t-63 53.5t-77.5 33t-98 11q-72 0 -127.5 -23 t-97 -63t-70.5 -93t-46.5 -112.5t-25.5 -122.5t-8 -122q0 -95 21.5 -191t67.5 -173t117 -125t169 -48q53 0 95.5 13.5t78 38t64 58.5t53.5 75l199 -76q-30 -70 -74.5 -128t-105 -99t-138 -64t-172.5 -23z" />
<glyph unicode="D" horiz-adv-x="1403" d="M184 1434h402q125 0 224 -28.5t175 -78.5t130 -118.5t88.5 -148t50.5 -167.5t16 -176q0 -82 -14.5 -167.5t-48 -165t-86.5 -149.5t-130 -122.5t-179.5 -82.5t-233.5 -30h-394v1434zM612 201q82 0 146.5 21.5t113 58.5t82 87t55 107.5t31 119t9.5 122.5q0 97 -23.5 189.5 t-73.5 165t-128.5 117t-188.5 44.5h-238v-1032h215z" />
<glyph unicode="E" horiz-adv-x="1231" d="M184 0v1434h889v-201h-676v-393h437v-201h-437v-438h721v-201h-934z" />
<glyph unicode="F" horiz-adv-x="1145" d="M184 0v1434h889v-201h-676v-393h437v-201h-437v-639h-213z" />
<glyph unicode="G" horiz-adv-x="1413" d="M758 -25q-111 0 -200 29t-158.5 80t-120 121.5t-83 152.5t-48 173.5t-15.5 185.5q0 87 16.5 176t50.5 171.5t85 154.5t120.5 125t157.5 83.5t195 30.5q103 0 179.5 -22.5t134.5 -60.5t100 -87t75 -102l-192 -111q-25 35 -53.5 66.5t-64.5 55.5t-80 38t-99 14 q-78 0 -138.5 -23t-105 -62.5t-75.5 -92t-49.5 -111.5t-27 -121.5t-8.5 -121.5q0 -103 23 -199t72 -170.5t125.5 -119t183.5 -44.5q67 0 123 23.5t96 64.5t62 96t22 119v29h-258v201h477v-187q0 -135 -40 -238.5t-110.5 -174t-165.5 -106.5t-206 -36z" />
<glyph unicode="H" horiz-adv-x="1448" d="M1051 0v639h-654v-639h-213v1434h213v-594h654v594h213v-1434h-213z" />
<glyph unicode="I" horiz-adv-x="602" d="M195 0v1434h213v-1434h-213z" />
<glyph unicode="J" d="M506 -25q-77 0 -146 17.5t-127.5 51.5t-104.5 84.5t-77 117.5l185 90q38 -81 107 -118.5t163 -37.5q51 0 98.5 13t84 49t59 100.5t22.5 167.5v924h213v-953q0 -100 -20.5 -176.5t-55 -133t-81.5 -94t-100 -60.5t-109.5 -32.5t-110.5 -9.5z" />
<glyph unicode="K" horiz-adv-x="1386" d="M1055 0l-404 750l-254 -308v-442h-213v1434h213v-695l553 695h246l-401 -504l510 -930h-250z" />
<glyph unicode="L" horiz-adv-x="1190" d="M184 0v1434h213v-1229h701v-205h-914z" />
<glyph unicode="M" horiz-adv-x="1647" d="M1249 0v784l6 215l-84 -221l-346 -803l-348 809l-86 215l6 -215v-784h-213v1434h215l385 -895l39 -105l41 105l383 895h215v-1434h-213z" />
<glyph unicode="N" horiz-adv-x="1454" d="M1069 0l-620 973l-58 106l6 -106v-973h-213v1434h215l605 -957l59 -110l-6 108v959h213v-1434h-201z" />
<glyph unicode="O" horiz-adv-x="1516" d="M758 -25q-115 0 -206 30.5t-160.5 83t-118.5 124t-80 154t-45.5 172t-14.5 178.5q0 88 14.5 177.5t45.5 172t80 154t118.5 124t160.5 83t206 30.5t206 -30.5t160.5 -83t118.5 -124t80 -154t45 -172t14 -177.5q0 -89 -14 -178.5t-45 -172t-80 -154t-118.5 -124t-160.5 -83 t-206 -30.5zM758 180q75 0 134 23.5t103.5 63.5t76 93.5t51.5 113t29 122t9 121.5q0 62 -9 126.5t-29 124t-51.5 111.5t-76 90.5t-103.5 61t-134 22.5t-134 -23.5t-104 -63.5t-76.5 -93.5t-51.5 -113t-29 -122t-9 -120.5q0 -94 21 -189.5t69 -173t125 -126t189 -48.5z" />
<glyph unicode="P" horiz-adv-x="1315" d="M184 0v1434h576q132 0 222.5 -38.5t146 -100.5t80 -140.5t24.5 -159.5q0 -50 -11.5 -102t-35.5 -100.5t-62 -91.5t-90.5 -75t-120.5 -50.5t-153 -18.5h-363v-557h-213zM772 762q67 0 112.5 21t74 54.5t41 75t12.5 82.5q0 38 -11 79t-38 75.5t-73.5 57t-117.5 22.5h-375 v-467h375z" />
<glyph unicode="Q" horiz-adv-x="1516" d="M758 -25q-115 0 -206 30.5t-160.5 83t-118.5 124t-80 154t-45.5 172t-14.5 178.5q0 88 14.5 177.5t45.5 172t80 154t118.5 124t160.5 83t206 30.5t206 -30.5t160.5 -83t118.5 -124t80 -154t45 -172t14 -177.5q0 -83 -12.5 -166.5t-39 -162t-69 -148t-102.5 -123.5 l96 -144l-163 -110l-103 151q-51 -18 -108 -28.5t-123 -10.5zM758 180q29 0 56.5 3.5t51.5 11.5l-108 163l168 111l106 -162q34 41 58.5 90.5t40.5 103t23 109t7 107.5q0 62 -9 126.5t-29 124t-51.5 111.5t-76 90.5t-103.5 61t-134 22.5t-134 -23.5t-104 -63.5t-76.5 -93.5 t-51.5 -113t-29 -122t-9 -120.5q0 -94 21 -189.5t69 -173t125 -126t189 -48.5z" />
<glyph unicode="R" horiz-adv-x="1384" d="M184 0v1434h604q132 0 221 -36t143 -95.5t76.5 -135.5t22.5 -157q0 -62 -18 -125t-55.5 -118.5t-96.5 -98t-141 -64.5l295 -604h-244l-282 586h-312v-586h-213zM793 791q67 0 112 18.5t73 49.5t40 70t12 81q0 37 -10.5 76t-37.5 71t-73 52t-116 20h-396v-438h396z" />
<glyph unicode="S" horiz-adv-x="1237" d="M854 1108q-13 31 -36 57.5t-56 46t-75.5 30.5t-94.5 11q-103 0 -161 -45t-58 -127q0 -51 32 -86.5t84 -62.5t118.5 -49.5t136 -49t136 -61t118.5 -84t84 -119t32 -166.5q0 -103 -37.5 -182.5t-103.5 -134t-155.5 -83t-192.5 -28.5q-96 0 -179.5 24.5t-151 70t-116.5 110 t-76 144.5l201 73q22 -48 54.5 -88t74.5 -68.5t92.5 -44.5t108.5 -16t106 14t82 42t53 69.5t19 95.5q0 64 -32 107.5t-84 75.5t-118.5 56l-136 49t-136 56t-118.5 76t-84 108t-32 154q0 76 30.5 144t88.5 119.5t143 81.5t194 30q91 0 165 -21.5t129.5 -59.5t92.5 -90 t56 -113z" />
<glyph unicode="T" horiz-adv-x="1208" d="M711 1229v-1229h-213v1229h-406v205h1024v-205h-405z" />
<glyph unicode="U" horiz-adv-x="1427" d="M713 -25q-111 0 -209.5 29t-171.5 95.5t-115.5 175t-42.5 268.5v891h213v-891q0 -108 25 -178t68.5 -111t103.5 -57.5t129 -16.5t128.5 16.5t104 57.5t69.5 111t25 178v891h213v-891q0 -158 -41 -266.5t-113.5 -175.5t-171.5 -96.5t-214 -29.5z" />
<glyph unicode="V" horiz-adv-x="1358" d="M786 0h-213l-491 1434h229l326 -1000l21.5 -71.5t23.5 -92.5q11 50 23.5 92.5l21.5 71.5l322 1000h227z" />
<glyph unicode="W" horiz-adv-x="1745" d="M1653 1434l-310 -1434h-192l-248 930q-15 57 -23.5 92.5t-11.5 62.5q-3 -27 -11 -62.5t-23 -92.5l-242 -930h-193l-307 1434h219l178 -883l20.5 -100t10.5 -66q3 28 12.5 65.5l24.5 100.5l225 883h179l231 -881q17 -62 25.5 -99t11.5 -65q3 28 9.5 66t18.5 98l181 881 h215z" />
<glyph unicode="X" horiz-adv-x="1331" d="M102 0l441 741l-410 693h246l287 -486l286 486h246l-410 -693l441 -741h-246l-317 535l-318 -535h-246z" />
<glyph unicode="Y" horiz-adv-x="1364" d="M575 0v561l-503 873h243l367 -656l367 656h243l-504 -871v-563h-213z" />
<glyph unicode="Z" horiz-adv-x="1356" d="M113 0v172l827 1057h-780v205h1063v-172l-830 -1057h830v-205h-1110z" />
<glyph unicode="[" horiz-adv-x="762" d="M205 -266v1724h475v-201h-262v-1323h262v-200h-475z" />
<glyph unicode="\" horiz-adv-x="1010" d="M774 -266l-805 1724h215l805 -1724h-215z" />
<glyph unicode="]" horiz-adv-x="762" d="M557 -266h-475v200h262v1323h-262v201h475v-1724z" />
<glyph unicode="^" horiz-adv-x="1290" d="M928 717l-283 471l-283 -471h-219l412 741h180l412 -741h-219z" />
<glyph unicode="_" horiz-adv-x="1024" d="M-10 -362v184h1044v-184h-1044z" />
<glyph unicode="`" horiz-adv-x="819" d="M451 1180l-365 319h291l291 -319h-217z" />
<glyph unicode="a" horiz-adv-x="1090" d="M956 0h-204v90q-20 -21 -48 -41.5t-63.5 -37t-79.5 -26.5t-96 -10q-80 0 -148 22t-118 66.5t-78.5 110t-28.5 152.5q0 90 34 155.5t90 108t128.5 62.5t149.5 20q72 0 138.5 -15.5t119.5 -46.5v58q0 59 -13.5 100t-41 66.5t-69.5 37t-100 11.5q-98 0 -169.5 -26 t-129.5 -69l-63 175q32 22 73 41.5t90 34.5t106 23.5t122 8.5q44 0 91 -5t91.5 -19.5t84 -41.5t69 -70.5t46.5 -106.5t17 -150v-678zM504 164q81 0 143.5 33t104.5 79v160q-44 23 -103 37t-121 14q-48 0 -90 -9t-73.5 -28.5t-49.5 -50t-18 -73.5q0 -75 52.5 -118.5 t154.5 -43.5z" />
<glyph unicode="b" horiz-adv-x="1151" d="M614 -25q-45 0 -81.5 8.5t-66.5 23t-54 34.5t-45 43v-84h-213v1380l213 99v-512q40 45 100.5 74.5t146.5 29.5q96 0 176 -37t137.5 -107.5t89.5 -172t32 -230.5q0 -133 -30 -235.5t-86.5 -172t-137 -105.5t-181.5 -36zM588 176q61 0 107 24.5t77.5 69.5t47.5 109.5 t16 144.5q0 169 -63.5 257.5t-184.5 88.5q-41 0 -76 -11t-63.5 -28t-49 -38t-32.5 -41v-457q35 -57 92.5 -88t128.5 -31z" />
<glyph unicode="c" horiz-adv-x="1061" d="M559 -25q-105 0 -189.5 37t-144 107.5t-91.5 172t-32 230.5t32 231t91.5 172.5t144 108t189.5 37.5q146 0 247.5 -65t147.5 -205l-202 -70q-23 60 -70 97.5t-115 37.5q-60 0 -106 -24t-77.5 -68.5t-48 -108t-16.5 -143.5t16.5 -143.5t47 -107.5t75 -67.5t101.5 -23.5 q72 0 123.5 40t73.5 114l202 -64q-42 -146 -142.5 -220.5t-256.5 -74.5z" />
<glyph unicode="d" horiz-adv-x="1151" d="M537 -25q-99 0 -179.5 37.5t-137.5 108t-87.5 172.5t-30.5 231t32 230.5t89.5 172t137.5 107.5t176 37q86 0 146.5 -28t100.5 -70v407l213 99v-1479h-213v74q-42 -47 -100.5 -73t-146.5 -26zM567 176q72 0 127 31t90 88v461q-12 20 -32 40t-47.5 36.5t-62 27t-75.5 10.5 q-120 0 -186 -88.5t-66 -257.5q0 -76 17.5 -139.5t50 -110t79 -72.5t105.5 -26z" />
<glyph unicode="e" horiz-adv-x="1120" d="M578 -25q-109 0 -197 37.5t-150 108t-95.5 172.5t-33.5 231t34 230.5t96.5 172t150 107.5t195.5 37q93 0 174.5 -29.5t143 -90t97 -152.5t35.5 -217q0 -34 -1.5 -72t-6.5 -66h-705q1 -65 23.5 -116.5t59.5 -88t84 -56t98 -19.5q65 0 120.5 27t96.5 79l139 -143 q-57 -68 -146 -110t-212 -42zM578 883q-50 0 -96 -14.5t-81.5 -46t-58.5 -82.5t-27 -124h500q-2 73 -23 124t-55 82.5t-75.5 46t-83.5 14.5z" />
<glyph unicode="f" horiz-adv-x="686" d="M440 862v-862h-213v862h-155v185h155v167q0 72 21 119.5t54.5 75t76.5 38.5t88 11q62 0 112 -13t97 -36v-176q-48 20 -83 28.5t-67 8.5q-26 0 -42.5 -7t-26.5 -20t-13.5 -30t-3.5 -37v-129h236v-185h-236z" />
<glyph unicode="g" horiz-adv-x="1151" d="M397 -246q115 7 190 27t119 50.5t61 71.5t17 89v92q-87 -109 -252 -109q-90 0 -168 34.5t-136.5 103.5t-92 171.5t-33.5 239.5q0 129 32 230.5t89.5 172t137.5 107.5t176 37q46 0 84 -8.5t68.5 -22.5t54 -31.5t40.5 -35.5v74h213v-967q0 -120 -24 -204t-82 -144 q-39 -40 -85.5 -65.5t-97 -41.5t-102.5 -23.5t-102 -11.5zM571 176q65 0 121.5 32t91.5 91v453q-16 26 -39.5 47.5t-51 37.5t-59 24.5t-63.5 8.5q-125 0 -190.5 -88.5t-65.5 -257.5q0 -80 18 -144.5t51 -109.5t80.5 -69.5t106.5 -24.5z" />
<glyph unicode="h" d="M801 0v625q0 66 -16 112.5t-44 76t-66 43t-83 13.5q-48 0 -89 -12.5t-71 -40.5t-47.5 -74.5t-17.5 -113.5v-629h-213v1380l213 99v-533q51 65 117 95t153 30q82 0 151 -23.5t119.5 -76.5t78.5 -138t28 -208v-625h-213z" />
<glyph unicode="i" horiz-adv-x="524" d="M156 0v1047h213v-1047h-213zM262 1210q-27 0 -50.5 10t-41 27.5t-27.5 41t-10 50.5t10 50.5t27.5 41t41 27.5t50.5 10t50.5 -10t41 -27.5t27.5 -41t10 -50.5t-10 -50.5t-27.5 -41t-41 -27.5t-50.5 -10z" />
<glyph unicode="j" horiz-adv-x="524" d="M-129 -281q81 18 135.5 39.5t87.5 51.5t47.5 70.5t14.5 96.5v1070h213v-998q0 -46 -4 -91.5t-15 -88.5t-30 -81.5t-50 -70.5q-36 -38 -74 -64t-76 -43.5t-75 -29t-72 -18.5zM262 1210q-27 0 -50.5 10t-41 27.5t-27.5 41t-10 50.5t10 50.5t27.5 41t41 27.5t50.5 10 t50.5 -10t41 -27.5t27.5 -41t10 -50.5t-10 -50.5t-27.5 -41t-41 -27.5t-50.5 -10z" />
<glyph unicode="k" horiz-adv-x="1126" d="M154 0v1378l213 101v-756l309 324h262l-287 -291l393 -756h-233l-309 602l-135 -135v-467h-213z" />
<glyph unicode="l" horiz-adv-x="541" d="M164 0v1378l213 101v-1479h-213z" />
<glyph unicode="m" horiz-adv-x="1739" d="M1382 0v627q0 117 -48 180t-144 63q-43 0 -81 -16t-66.5 -48t-45 -79.5t-16.5 -110.5v-616h-213v627q0 117 -48.5 180t-144.5 63q-43 0 -80.5 -16t-66 -48t-45 -79.5t-16.5 -110.5v-616h-213v1047h213v-97q45 65 114 93t150 28q86 0 159.5 -34.5t118.5 -114.5 q50 77 128 113t182 36q80 0 148.5 -23t119 -71t79.5 -123t29 -178v-676h-213z" />
<glyph unicode="n" d="M801 0v625q0 66 -16 112.5t-44 76t-66 43t-83 13.5q-48 0 -89 -12.5t-71 -40.5t-47.5 -74.5t-17.5 -113.5v-629h-213v1047h213v-101q51 65 117 95t153 30q82 0 151 -23.5t119.5 -76.5t78.5 -138t28 -208v-625h-213z" />
<glyph unicode="o" horiz-adv-x="1161" d="M580 -25q-110 0 -198.5 37t-150.5 107.5t-95.5 172t-33.5 230.5t33.5 231t95.5 172.5t150.5 108t198.5 37.5q109 0 198 -37.5t151 -108t96 -172.5t34 -231t-34 -230.5t-96 -172t-151 -107.5t-198 -37zM580 176q61 0 110.5 24t84 68.5t53 108.5t18.5 145t-18.5 145.5 t-53 109.5t-84 69t-110.5 24t-110 -24t-83.5 -69t-53 -109.5t-18.5 -145.5t18.5 -145t53 -108.5t83.5 -68.5t110 -24z" />
<glyph unicode="p" horiz-adv-x="1151" d="M618 -25q-46 0 -83.5 9t-68.5 25t-55.5 36.5t-43.5 44.5v-403l-213 -99v1459h213v-84q41 46 101 77t150 31q99 0 179 -37.5t136 -108t86 -172.5t30 -231t-31.5 -230.5t-88 -172t-136 -107.5t-175.5 -37zM588 176q121 0 184.5 89t63.5 257q0 76 -16.5 140t-48.5 110 t-78 72t-105 26q-75 0 -130.5 -30.5t-90.5 -87.5v-455q18 -24 40.5 -46t50 -38.5t60 -26.5t70.5 -10z" />
<glyph unicode="q" horiz-adv-x="1151" d="M537 -25q-96 0 -176 37t-137.5 107.5t-89.5 172t-32 230.5t30.5 231t87.5 172.5t137.5 108t179.5 37.5q87 0 146.5 -31t100.5 -77v84h213v-1360l-213 -97v500q-42 -51 -101.5 -83t-145.5 -32zM563 176q41 0 75 11.5t61.5 29t48.5 39t36 41.5v455q-37 60 -93.5 89 t-127.5 29q-59 0 -105 -26t-78 -72t-48.5 -110t-16.5 -140q0 -168 63.5 -257t184.5 -89z" />
<glyph unicode="r" horiz-adv-x="827" d="M154 0v1047h213v-127q37 80 96 115.5t137 35.5q104 0 176 -63l-31 -197q-29 20 -68.5 35.5t-96.5 15.5q-36 0 -73.5 -12.5t-68.5 -44t-51 -84t-20 -133.5v-588h-213z" />
<glyph unicode="s" horiz-adv-x="973" d="M477 -25q-62 0 -121 12t-110.5 34t-93.5 53.5t-70 70.5l151 129q16 -15 39 -33.5t53 -34.5t67 -27t81 -11q40 0 74 6t58.5 19t38 34.5t13.5 53.5q0 37 -25.5 63.5t-66.5 48t-93 41t-105 41.5q-49 21 -96 46t-83.5 60t-59 83.5t-22.5 117.5q0 70 28.5 124t78 90.5 t116 55.5t142.5 19q67 0 123.5 -13t102 -35t80.5 -50.5t61 -59.5l-154 -122q-14 14 -33.5 29.5t-45.5 28.5t-59 21.5t-75 8.5q-68 0 -107.5 -25t-39.5 -72q0 -30 21 -52.5t57 -41.5t82.5 -36.5l97.5 -37.5q54 -21 106 -47t92.5 -64t65 -92t24.5 -130q0 -75 -28 -132.5 t-79.5 -96t-124 -58t-161.5 -19.5z" />
<glyph unicode="t" horiz-adv-x="776" d="M457 -25q-62 0 -106.5 18.5t-73 52.5t-41.5 82.5t-13 107.5v626h-162v185h162v329l213 103v-432h248v-185h-248v-571q0 -26 4.5 -48t16 -38t31.5 -24.5t51 -8.5q76 0 155 49l-26 -198q-44 -22 -96 -35t-115 -13z" />
<glyph unicode="u" d="M791 0v100q-51 -65 -117.5 -95t-153.5 -30q-82 0 -151 23.5t-119.5 77t-78.5 138.5t-28 208v625h213v-625q0 -66 16 -112.5t44 -76.5t66 -43.5t83 -13.5q48 0 89 12.5t71.5 41t48 74.5t17.5 114v629h213v-1047h-213z" />
<glyph unicode="v" horiz-adv-x="1067" d="M633 0h-199l-383 1047h213l242 -687l15.5 -47t13.5 -45q6 25 12.5 45l15.5 47l240 687h213z" />
<glyph unicode="w" horiz-adv-x="1487" d="M1137 0h-189l-174 608l-10.5 37t-10 36.5t-8 32.5t-4.5 25q-2 -10 -4.5 -25.5t-6.5 -33.5t-9 -37l-10 -37l-172 -606h-189l-278 1047h209l147 -652q8 -34 12.5 -59.5l8.5 -46.5q3 21 8.5 48t13.5 58l174 652h197l174 -652q8 -31 13.5 -58t8.5 -48q3 21 8 46.5t13 59.5 l147 652h209z" />
<glyph unicode="x" horiz-adv-x="1085" d="M770 0l-174 270q-17 26 -29.5 50.5l-23.5 44.5q-10 -20 -23.5 -44.5t-30.5 -50.5l-174 -270h-243l348 545l-320 502h244l145 -228l30.5 -51t23.5 -43l23.5 44t29.5 50l145 228h244l-321 -502l350 -545h-244z" />
<glyph unicode="y" horiz-adv-x="1102" d="M498 -397h-217l161 415l-391 1029h211l258 -685q11 -29 17 -48t12 -44q6 25 12 44t17 48l260 685h213z" />
<glyph unicode="z" horiz-adv-x="1047" d="M113 0v174l555 684h-514v189h770v-168l-555 -691h553v-188h-809z" />
<glyph unicode="{" horiz-adv-x="750" d="M668 -266q-98 2 -177.5 33t-136 90.5t-87.5 148t-31 205.5v121q0 77 -31.5 124.5t-91.5 47.5h-31v186h31q60 0 91.5 47.5t31.5 124.5v119q0 117 31 205.5t87.5 148t136 90.5t177.5 33v-188q-110 -5 -164.5 -69.5t-54.5 -182.5v-133q0 -76 -13 -128t-37.5 -85t-61 -51 t-83.5 -25q47 -8 83.5 -25.5t61 -50.5t37.5 -85t13 -128v-133q0 -118 54.5 -182.5t164.5 -69.5v-188z" />
<glyph unicode="|" horiz-adv-x="561" d="M174 -420v2069h213v-2069h-213z" />
<glyph unicode="}" horiz-adv-x="750" d="M82 -78q109 5 164 69.5t55 182.5v133q0 76 13 128t37.5 85t61 50.5t83.5 25.5q-47 7 -83.5 25t-61 51t-37.5 85t-13 128v133q0 118 -55 182.5t-164 69.5v188q97 -2 177 -33t136.5 -90.5t87.5 -148t31 -205.5v-119q0 -77 31.5 -124.5t91.5 -47.5h31v-186h-31 q-60 0 -91.5 -47.5t-31.5 -124.5v-121q0 -117 -31 -205.5t-87.5 -148t-136.5 -90.5t-177 -33v188z" />
<glyph unicode="~" horiz-adv-x="1290" d="M852 541q-65 0 -121 18.5t-105.5 40.5l-95 40.5t-90.5 18.5q-55 0 -86.5 -33t-36.5 -85h-153q0 64 15 122.5t48 103t85 71t126 26.5q65 0 121 -18.5t105.5 -41t95 -41t90.5 -18.5q56 0 87 33.5t36 85.5h153q0 -64 -15 -122.5t-47.5 -103t-84.5 -71t-127 -26.5z" />
<glyph unicode="&#xa1;" horiz-adv-x="565" d="M176 -410v453l60 608h94l59 -608v-453h-213zM283 770q-33 0 -61 12t-49 32.5t-32.5 47.5t-11.5 58q0 30 11.5 57.5t32.5 48.5t49 33t61 12q32 0 60.5 -12t49.5 -33t33 -48.5t12 -57.5q0 -31 -12 -58t-33 -47.5t-49.5 -32.5t-60.5 -12z" />
<glyph unicode="&#xa2;" horiz-adv-x="1061" d="M434 -25v209q-78 20 -139.5 65t-104 112.5t-65.5 157t-23 198.5q0 108 23 197.5t65.5 157t104 112.5t139.5 65v209h205v-198q114 -17 194.5 -81t120.5 -184l-202 -69q-23 60 -70 97.5t-115 37.5q-60 0 -106 -24t-77.5 -68.5t-48 -108t-16.5 -143.5t16.5 -143.5t47 -107.5 t75 -67.5t101.5 -23.5q72 0 123.5 39.5t73.5 113.5l202 -63q-74 -254 -319 -289v-201h-205z" />
<glyph unicode="&#xa3;" horiz-adv-x="1206" d="M164 0v213q51 24 84.5 68t53.5 96.5t28 106.5t8 96h-184v188h135l-26.5 56t-24 62.5t-17 73t-6.5 87.5q0 78 28.5 152t87 131.5t148 92.5t211.5 35q71 0 130 -9.5t111 -27.5t99.5 -45t95.5 -61l-84 -203l-56 47t-72.5 46t-96.5 34.5t-127 13.5q-68 0 -116 -18t-78.5 -47 t-45 -66t-14.5 -75t9 -71.5t22.5 -66.5t29 -67.5t29.5 -73.5h342v-188h-309q0 -104 -36.5 -199t-114.5 -176h737v-205h-981z" />
<glyph unicode="&#xa4;" horiz-adv-x="1290" d="M645 176q-161 0 -274 74l-138 -139l-159 159l145 146q-31 55 -46 122t-15 144t16 144t47 124l-147 148l153 153l140 -139q57 37 127 57.5t151 20.5q79 0 148.5 -19.5t126.5 -56.5l137 137l160 -159l-144 -144q29 -57 45.5 -124t16.5 -142q0 -78 -17 -146.5t-49 -125.5 l148 -146l-154 -153l-141 141q-57 -37 -126.5 -56.5t-150.5 -19.5zM645 381q61 0 111.5 22.5t86.5 62.5t55.5 95.5t19.5 120.5t-19.5 120.5t-55.5 96t-86.5 63.5t-111.5 23t-110.5 -23t-85 -63.5t-55 -96t-19.5 -120.5t19.5 -120.5t55 -95.5t85 -62.5t110.5 -22.5z" />
<glyph unicode="&#xa5;" horiz-adv-x="1174" d="M702 674h283v-185h-293v-135h293v-184h-293v-170h-213v170h-301v184h301v135h-301v185h289l-436 760h241l314 -564l313 564h244z" />
<glyph unicode="&#xa6;" horiz-adv-x="561" d="M174 778v697h213v-697h-213zM174 -246v697h213v-697h-213z" />
<glyph unicode="&#xa7;" horiz-adv-x="1071" d="M543 -246q-75 0 -141 14t-122.5 39.5t-101.5 60.5t-76 77l156 133q18 -18 44.5 -38.5t61.5 -38.5t79.5 -30t97.5 -12q43 0 81 7t66 23.5t44 43t16 65.5q0 42 -28.5 73.5t-75 58.5t-105 50.5l-117.5 49.5q-56 24 -109 50t-94 62t-66.5 85t-25.5 120q0 76 37.5 133t99.5 88 q-66 45 -101.5 111.5t-35.5 153.5q0 78 31 138.5t85 102t127.5 63t157.5 21.5q75 0 136 -14t110.5 -38t87.5 -55t66 -65l-162 -129q-15 16 -36.5 33t-51 31t-66.5 23t-84 9q-83 0 -131.5 -31t-48.5 -89q0 -34 24 -61.5t64.5 -51t93.5 -45l111 -43.5q62 -25 121 -52t105 -66 t74 -93.5t28 -134.5q0 -151 -119 -221q62 -51 90.5 -115t28.5 -146q0 -83 -29 -148t-84 -110t-134 -68.5t-179 -23.5zM748 569q0 37 -23.5 65.5t-63 51.5t-91 42.5l-107.5 39.5q-54 -9 -84.5 -36.5t-30.5 -69.5q0 -35 26 -61.5t71 -49t104.5 -43.5l126.5 -45q34 14 53 41 t19 65z" />
<glyph unicode="&#xa8;" horiz-adv-x="819" d="M225 1210q-27 0 -50.5 10t-41 27.5t-27.5 41t-10 50.5t10 50.5t27.5 41t41 27.5t50.5 10t50.5 -10t41 -27.5t27.5 -41t10 -50.5t-10 -50.5t-27.5 -41t-41 -27.5t-50.5 -10zM594 1210q-27 0 -50.5 10t-41 27.5t-27.5 41t-10 50.5t10 50.5t27.5 41t41 27.5t50.5 10 t50.5 -10t41 -27.5t27.5 -41t10 -50.5t-10 -50.5t-27.5 -41t-41 -27.5t-50.5 -10z" />
<glyph unicode="&#xa9;" horiz-adv-x="1729" d="M872 270q-101 0 -170 40t-111 103.5t-60.5 143.5t-18.5 160q0 49 8 101.5t26 102t46 93.5t68 77t92.5 52.5t119.5 19.5q62 0 112 -16t87.5 -42t63 -59t39.5 -67l-136 -64q-32 49 -68.5 75t-97.5 26q-57 0 -96 -28t-62.5 -71.5t-33.5 -96.5t-10 -103q0 -53 11.5 -106.5 t36.5 -96.5t63 -69.5t91 -26.5q58 0 96.5 30t69.5 76l138 -49q-20 -45 -48 -83t-65.5 -65t-85 -42t-105.5 -15zM864 -25q-158 0 -293 57t-235 156.5t-156.5 235t-56.5 293.5q0 105 25.5 200.5t73 178t114.5 149.5t149.5 114.5t178 73t200.5 25.5t201 -25.5t178 -73 t149.5 -114.5t114.5 -149.5t73 -178t26 -200.5t-26 -201t-73 -178t-114.5 -149.5t-149.5 -114.5t-178 -73t-201 -26zM864 123q127 0 234 45.5t185 125t121.5 188t43.5 235.5t-43.5 235.5t-121.5 188t-185 125t-234 45.5t-234 -45.5t-184.5 -125t-121 -188t-43.5 -235.5 t43.5 -235.5t121 -188t184.5 -125t234 -45.5z" />
<glyph unicode="&#xaa;" horiz-adv-x="895" d="M602 580v61q-17 -15 -40.5 -30t-52.5 -26.5t-62.5 -18.5t-69.5 -7q-65 0 -121 18.5t-97 54.5t-64 90t-23 126q0 75 29 129t76 89t105.5 52t118.5 17q54 0 106.5 -11.5t94.5 -31.5v34q0 94 -42 132t-130 38q-74 0 -133 -21t-109 -58l-53 151q54 38 134.5 64t183.5 26 q55 0 113.5 -10t106.5 -43.5t78.5 -97.5t30.5 -172v-555h-180zM410 721q28 0 55.5 6.5t52.5 18t46.5 26t37.5 29.5v135q-18 8 -39 15t-44 12.5t-45.5 8.5t-43.5 3q-34 0 -65.5 -7t-55.5 -22.5t-38.5 -39.5t-14.5 -58q0 -59 40.5 -93t113.5 -34z" />
<glyph unicode="&#xab;" horiz-adv-x="1073" d="M373 0l-312 524l312 523h231l-311 -523l311 -524h-231zM811 0l-311 524l311 523h231l-311 -523l311 -524h-231z" />
<glyph unicode="&#xac;" horiz-adv-x="1290" d="M913 344v420h-749v205h962v-625h-213z" />
<glyph unicode="&#xad;" horiz-adv-x="809" d="M154 506v205h501v-205h-501z" />
<glyph unicode="&#xae;" horiz-adv-x="1729" d="M571 285v864h340q81 0 135.5 -22t87.5 -58t47.5 -82.5t14.5 -95.5q0 -38 -10.5 -75.5t-32.5 -70.5t-56 -59t-81 -41l88 -180.5l88 -179.5h-176l-166 346h-127v-346h-152zM911 776q36 0 60.5 9t38.5 25t20 37t6 44q0 20 -5 40t-19 36.5t-38 26.5t-63 10h-188v-228h188z M864 -25q-158 0 -293 57t-235 156.5t-156.5 235t-56.5 293.5q0 105 25.5 200.5t73 178t114.5 149.5t149.5 114.5t178 73t200.5 25.5t201 -25.5t178 -73t149.5 -114.5t114.5 -149.5t73 -178t26 -200.5t-26 -201t-73 -178t-114.5 -149.5t-149.5 -114.5t-178 -73t-201 -26z M864 123q127 0 234 45.5t185 125t121.5 188t43.5 235.5t-43.5 235.5t-121.5 188t-185 125t-234 45.5t-234 -45.5t-184.5 -125t-121 -188t-43.5 -235.5t43.5 -235.5t121 -188t184.5 -125t234 -45.5z" />
<glyph unicode="&#xaf;" horiz-adv-x="819" d="M72 1223v176h676v-176h-676z" />
<glyph unicode="&#xb0;" horiz-adv-x="819" d="M410 1124q32 0 59.5 12.5t47.5 34t31 50.5t11 63t-11 63t-31 50t-47.5 33t-59.5 12t-60 -12t-48.5 -33t-32 -50t-11.5 -63t11.5 -63t32 -50.5t48.5 -34t60 -12.5zM410 928q-75 0 -141 27.5t-115 75.5t-77 113t-28 140q0 76 28 141t77 112t115 74t141 27t140.5 -27 t113.5 -74t76 -112t28 -141q0 -75 -28 -140t-76 -113t-113.5 -75.5t-140.5 -27.5z" />
<glyph unicode="&#xb1;" horiz-adv-x="1290" d="M752 723v-317h-213v317h-375v205h375v317h213v-317h374v-205h-374zM164 0v205h962v-205h-962z" />
<glyph unicode="&#xb2;" horiz-adv-x="731" d="M51 909q0 92 24 168t65.5 136t96 105t115.5 77q25 13 47 26t39 28t27 34t10 45q0 40 -30 70t-87 30q-58 0 -94.5 -35t-48.5 -98l-166 39q11 54 39 100.5t68.5 80.5t92 53.5t109.5 19.5q69 0 123.5 -19.5t92.5 -55t58.5 -84t20.5 -105.5t-18 -98t-49.5 -72t-74 -56.5 t-91.5 -50.5q-71 -37 -109.5 -82.5t-60.5 -95.5h401v-160h-600z" />
<glyph unicode="&#xb3;" horiz-adv-x="711" d="M338 893q-119 0 -199 66.5t-114 185.5l168 45q17 -72 60 -104.5t91 -32.5q53 0 88 28t35 82q0 22 -7.5 42t-23.5 35.5t-41 24.5t-59 9h-64v160h62q54 0 78 28t24 68q0 42 -25 70t-73 28t-75.5 -27.5t-43.5 -72.5l-164 59q37 91 110.5 146t176.5 55q64 0 114 -20 t84.5 -54.5t53 -79.5t18.5 -96q0 -53 -27.5 -101t-72.5 -77q62 -28 96.5 -82t34.5 -117q0 -62 -22.5 -111.5t-62.5 -84t-96.5 -53.5t-123.5 -19z" />
<glyph unicode="&#xb4;" horiz-adv-x="819" d="M369 1180h-217l290 319h291z" />
<glyph unicode="&#xb5;" d="M791 0v100q-51 -65 -115 -95t-135 -30q-122 0 -185 84v-368l-213 -101v1457h213v-625q0 -72 15 -119.5t42.5 -75.5t66 -39.5t85.5 -11.5q48 0 89 12.5t71.5 41t48 74.5t17.5 114v629h213v-1047h-213z" />
<glyph unicode="&#xb6;" horiz-adv-x="1286" d="M909 -244v1473h-176v-1542l-213 -97v975q-130 0 -221 39.5t-148.5 102.5t-83.5 140t-26 152q0 81 24.5 159t80 139.5t146 99t222.5 37.5h608v-1581z" />
<glyph unicode="&#xb7;" horiz-adv-x="457" d="M227 565q-33 0 -61 12t-48.5 32.5t-32 47.5t-11.5 58t11.5 58.5t32 48t48.5 32.5t61 12q32 0 60.5 -12t49.5 -32.5t33.5 -48t12.5 -58.5t-12.5 -58t-33.5 -47.5t-49.5 -32.5t-60.5 -12z" />
<glyph unicode="&#xb8;" horiz-adv-x="819" d="M399 -489q-74 0 -123.5 21.5t-80.5 55.5l104 76q12 -15 31.5 -23t48.5 -8q46 0 74 25t28 66q0 38 -31.5 63t-78.5 25q-49 0 -82 -21l-41 51l143 178h117l-76 -122q60 0 102.5 -14.5t70 -38.5t40 -56t12.5 -68q0 -46 -18 -84.5t-51.5 -66.5t-81.5 -43.5t-107 -15.5z" />
<glyph unicode="&#xb9;" horiz-adv-x="410" d="M133 909v684h-113v125q32 0 55.5 3.5t40.5 10t29 17t21 25.5h135v-865h-168z" />
<glyph unicode="&#xba;" horiz-adv-x="950" d="M473 559q-90 0 -162.5 30.5t-123 88t-78 141t-27.5 189.5t27.5 189.5t78 141.5t123 88.5t162.5 30.5t163 -30.5t124.5 -88.5t79.5 -141.5t28 -189.5t-28 -189.5t-79.5 -141t-124.5 -88t-163 -30.5zM473 733q100 0 154.5 72.5t54.5 202.5q0 131 -54.5 203.5t-154.5 72.5 q-97 0 -152 -72.5t-55 -203.5q0 -129 55 -202t152 -73z" />
<glyph unicode="&#xbb;" horiz-adv-x="1073" d="M469 0l311 524l-311 523h231l312 -523l-312 -524h-231zM31 0l311 524l-311 523h231l311 -523l-311 -524h-231z" />
<glyph unicode="&#xbc;" horiz-adv-x="1405" d="M20 -25l979 1483h195l-979 -1483h-195zM143 580v684h-113v125q32 0 55.5 3t40.5 10t29 17t21 25h135v-864h-168zM1084 0v176h-435v109l441 581h157v-532h111v-158h-111v-176h-163zM1084 334v291l-224 -291h224z" />
<glyph unicode="&#xbd;" horiz-adv-x="1495" d="M20 -25l979 1483h195l-979 -1483h-195zM143 580v684h-113v125q32 0 55.5 3t40.5 10t29 17t21 25h135v-864h-168zM815 0q0 92 24 167.5t65.5 135.5t96 105t115.5 77q25 13 47 26t39 28.5t27 34.5t10 44q0 41 -30 71t-87 30q-58 0 -94.5 -35t-48.5 -98l-166 39 q11 54 39 100.5t68.5 80.5t92 53.5t109.5 19.5q69 0 123.5 -20t92.5 -55t58.5 -83.5t20.5 -106.5q0 -57 -18 -97.5t-49.5 -71.5t-74 -56.5t-91.5 -50.5q-71 -37 -109.5 -83t-60.5 -95h401v-160h-600z" />
<glyph unicode="&#xbe;" horiz-adv-x="1651" d="M266 -25l979 1483h195l-979 -1483h-195zM338 563q-119 0 -199 66.5t-114 185.5l168 45q17 -72 60 -104.5t91 -32.5q53 0 88 28.5t35 82.5q0 21 -7.5 41t-23.5 35.5t-41 24.5t-59 9h-64v160h62q54 0 78 28t24 68q0 42 -25 70t-73 28t-75.5 -27.5t-43.5 -72.5l-164 59 q37 91 110.5 146t176.5 55q64 0 114 -20t84.5 -54.5t53 -79.5t18.5 -96q0 -52 -27.5 -100.5t-72.5 -77.5q62 -28 96.5 -82t34.5 -117q0 -61 -22.5 -110.5t-62.5 -84.5t-96.5 -54t-123.5 -19zM1330 0v176h-435v109l441 581h157v-532h111v-158h-111v-176h-163zM1330 334v291 l-224 -291h224z" />
<glyph unicode="&#xbf;" horiz-adv-x="1026" d="M639 659v-41q0 -73 -15 -128t-40 -97.5t-57 -75t-65 -61l-65 -54.5t-57 -56t-40 -66t-15 -84q0 -45 15 -82.5t43.5 -64.5t70.5 -42.5t96 -15.5q125 0 193.5 73t68.5 206h213q0 -112 -35 -201t-98 -151t-150.5 -95t-191.5 -33q-107 0 -188.5 31t-137 86t-84 129t-28.5 160 q0 84 26 142t65.5 102.5t85.5 81.5t85.5 78.5t65.5 93.5t26 127v38h213zM535 770q-33 0 -61.5 12t-49 32.5t-32 47.5t-11.5 58q0 30 11.5 57.5t32 48.5t49 33t61.5 12q32 0 60.5 -12t49.5 -33t33 -48.5t12 -57.5q0 -31 -12 -58t-33 -47.5t-49.5 -32.5t-60.5 -12z" />
<glyph unicode="&#xc0;" horiz-adv-x="1425" d="M1118 0l-114 330h-580l-117 -330h-221l518 1434h219l516 -1434h-221zM764 1006l-26.5 79t-22.5 82q-10 -37 -23.5 -81.5t-25.5 -79.5l-177 -488h449zM754 1569l-365 319h291l291 -319h-217z" />
<glyph unicode="&#xc1;" horiz-adv-x="1425" d="M1118 0l-114 330h-580l-117 -330h-221l518 1434h219l516 -1434h-221zM764 1006l-26.5 79t-22.5 82q-10 -37 -23.5 -81.5t-25.5 -79.5l-177 -488h449zM672 1569h-217l290 319h291z" />
<glyph unicode="&#xc2;" horiz-adv-x="1425" d="M1118 0l-114 330h-580l-117 -330h-221l518 1434h219l516 -1434h-221zM764 1006l-26.5 79t-22.5 82q-10 -37 -23.5 -81.5t-25.5 -79.5l-177 -488h449zM905 1569l-192 161l-193 -161h-205l291 319h215l289 -319h-205z" />
<glyph unicode="&#xc3;" horiz-adv-x="1425" d="M1118 0l-114 330h-580l-117 -330h-221l518 1434h219l516 -1434h-221zM764 1006l-26.5 79t-22.5 82q-10 -37 -23.5 -81.5t-25.5 -79.5l-177 -488h449zM874 1591q-54 0 -99.5 15.5t-85.5 33.5l-77 33.5t-76 15.5q-38 0 -65.5 -21.5t-30.5 -68.5h-104q0 61 11.5 110.5 t37.5 84.5t66.5 53.5t99.5 18.5q54 0 99.5 -15.5t85.5 -34t77 -34t76 -15.5q38 0 65.5 22t30.5 68h104q0 -61 -11.5 -110.5t-37.5 -84t-67 -53t-99 -18.5z" />
<glyph unicode="&#xc4;" horiz-adv-x="1425" d="M1118 0l-114 330h-580l-117 -330h-221l518 1434h219l516 -1434h-221zM764 1006l-26.5 79t-22.5 82q-10 -37 -23.5 -81.5t-25.5 -79.5l-177 -488h449zM528 1599q-27 0 -50.5 10t-41 27.5t-27.5 41t-10 50.5t10 50.5t27.5 41t41 27.5t50.5 10t50.5 -10t41 -27.5t27.5 -41 t10 -50.5t-10 -50.5t-27.5 -41t-41 -27.5t-50.5 -10zM897 1599q-27 0 -50.5 10t-41 27.5t-27.5 41t-10 50.5t10 50.5t27.5 41t41 27.5t50.5 10t50.5 -10t41 -27.5t27.5 -41t10 -50.5t-10 -50.5t-27.5 -41t-41 -27.5t-50.5 -10z" />
<glyph unicode="&#xc5;" horiz-adv-x="1425" d="M1118 0l-114 330h-580l-117 -330h-221l475 1317q-46 35 -73 87t-27 114q0 51 20 96t54.5 78.5t80 53t97.5 19.5q51 0 97 -19.5t80.5 -53t54.5 -78.5t20 -96q0 -62 -28 -113.5t-73 -85.5l475 -1319h-221zM764 1006l-26.5 79t-22.5 82q-10 -37 -23.5 -81.5t-25.5 -79.5 l-177 -488h449zM713 1421q38 0 65 27.5t27 69.5q0 41 -27 68.5t-65 27.5t-65 -27.5t-27 -68.5q0 -42 27 -69.5t65 -27.5z" />
<glyph unicode="&#xc6;" horiz-adv-x="1718" d="M827 0v330h-442l-186 -330h-230l832 1434h801v-201h-562v-393h322v-201h-322v-438h607v-201h-820zM827 520v598q-8 -18 -18.5 -39l-21.5 -42.5l-22.5 -42l-21.5 -38.5l-247 -436h331z" />
<glyph unicode="&#xc7;" horiz-adv-x="1331" d="M709 -489q-75 0 -124.5 21.5t-80.5 55.5l104 76q13 -15 32 -23t48 -8q47 0 75 25t28 66q0 38 -32 63t-79 25q-48 0 -82 -21l-41 51l109 138q-99 8 -177 42t-137 88t-101 124t-68 149t-38 164t-12 170q0 82 13.5 169t43 169.5t76.5 155.5t113 128t153 87t197 32 q101 0 182 -24.5t141.5 -64.5t101.5 -91t63 -104l-195 -91q-26 41 -54.5 72.5t-63 53.5t-77.5 33t-98 11q-72 0 -127.5 -23t-97 -63t-70.5 -93t-46.5 -112.5t-25.5 -122.5t-8 -122q0 -95 21.5 -191t67.5 -173t117 -125t169 -48q53 0 95.5 13.5t78 38t64 58.5t53.5 75 l199 -76q-28 -65 -67.5 -118.5t-92.5 -93.5t-120 -65t-148 -32l-50 -82q60 0 103 -14.5t70 -38.5t40 -56t13 -68q0 -46 -18 -84.5t-52 -66.5t-81.5 -43.5t-106.5 -15.5z" />
<glyph unicode="&#xc8;" horiz-adv-x="1231" d="M184 0v1434h889v-201h-676v-393h437v-201h-437v-438h721v-201h-934zM625 1569l-365 319h291l291 -319h-217z" />
<glyph unicode="&#xc9;" horiz-adv-x="1231" d="M184 0v1434h889v-201h-676v-393h437v-201h-437v-438h721v-201h-934zM625 1569h-217l290 319h291z" />
<glyph unicode="&#xca;" horiz-adv-x="1231" d="M184 0v1434h889v-201h-676v-393h437v-201h-437v-438h721v-201h-934zM817 1569l-192 161l-193 -161h-205l291 319h215l289 -319h-205z" />
<glyph unicode="&#xcb;" horiz-adv-x="1231" d="M184 0v1434h889v-201h-676v-393h437v-201h-437v-438h721v-201h-934zM440 1599q-27 0 -50.5 10t-41 27.5t-27.5 41t-10 50.5t10 50.5t27.5 41t41 27.5t50.5 10t50.5 -10t41 -27.5t27.5 -41t10 -50.5t-10 -50.5t-27.5 -41t-41 -27.5t-50.5 -10zM809 1599q-27 0 -50.5 10 t-41 27.5t-27.5 41t-10 50.5t10 50.5t27.5 41t41 27.5t50.5 10t50.5 -10t41 -27.5t27.5 -41t10 -50.5t-10 -50.5t-27.5 -41t-41 -27.5t-50.5 -10z" />
<glyph unicode="&#xcc;" horiz-adv-x="602" d="M195 0v1434h213v-1434h-213zM343 1569l-365 319h291l291 -319h-217z" />
<glyph unicode="&#xcd;" horiz-adv-x="602" d="M195 0v1434h213v-1434h-213zM261 1569h-217l290 319h291z" />
<glyph unicode="&#xce;" horiz-adv-x="602" d="M195 0v1434h213v-1434h-213zM494 1569l-192 161l-193 -161h-205l291 319h215l289 -319h-205z" />
<glyph unicode="&#xcf;" horiz-adv-x="602" d="M195 0v1434h213v-1434h-213zM117 1599q-27 0 -50.5 10t-41 27.5t-27.5 41t-10 50.5t10 50.5t27.5 41t41 27.5t50.5 10t50.5 -10t41 -27.5t27.5 -41t10 -50.5t-10 -50.5t-27.5 -41t-41 -27.5t-50.5 -10zM486 1599q-27 0 -50.5 10t-41 27.5t-27.5 41t-10 50.5t10 50.5 t27.5 41t41 27.5t50.5 10t50.5 -10t41 -27.5t27.5 -41t10 -50.5t-10 -50.5t-27.5 -41t-41 -27.5t-50.5 -10z" />
<glyph unicode="&#xd0;" horiz-adv-x="1403" d="M184 618h-133v197h133v619h402q125 0 224 -28.5t175 -78.5t130 -118.5t88.5 -148t50.5 -167.5t16 -176q0 -82 -14.5 -167.5t-48 -165t-86.5 -149.5t-130 -122.5t-179.5 -82.5t-233.5 -30h-394v618zM612 201q82 0 146.5 21.5t113 58.5t82 87t55 107.5t31 119t9.5 122.5 q0 97 -23.5 189.5t-73.5 165t-128.5 117t-188.5 44.5h-238v-418h310v-197h-310v-417h215z" />
<glyph unicode="&#xd1;" horiz-adv-x="1454" d="M1069 0l-620 973l-58 106l6 -106v-973h-213v1434h215l605 -957l59 -110l-6 108v959h213v-1434h-201zM909 1591q-54 0 -99.5 15.5t-85.5 33.5l-77 33.5t-76 15.5q-38 0 -65.5 -21.5t-30.5 -68.5h-104q0 61 11.5 110.5t37.5 84.5t66.5 53.5t99.5 18.5q54 0 99.5 -15.5 t85.5 -34t77 -34t76 -15.5q38 0 65.5 22t30.5 68h104q0 -61 -11.5 -110.5t-37.5 -84t-67 -53t-99 -18.5z" />
<glyph unicode="&#xd2;" horiz-adv-x="1516" d="M758 -25q-115 0 -206 30.5t-160.5 83t-118.5 124t-80 154t-45.5 172t-14.5 178.5q0 88 14.5 177.5t45.5 172t80 154t118.5 124t160.5 83t206 30.5t206 -30.5t160.5 -83t118.5 -124t80 -154t45 -172t14 -177.5q0 -89 -14 -178.5t-45 -172t-80 -154t-118.5 -124t-160.5 -83 t-206 -30.5zM758 180q75 0 134 23.5t103.5 63.5t76 93.5t51.5 113t29 122t9 121.5q0 62 -9 126.5t-29 124t-51.5 111.5t-76 90.5t-103.5 61t-134 22.5t-134 -23.5t-104 -63.5t-76.5 -93.5t-51.5 -113t-29 -122t-9 -120.5q0 -94 21 -189.5t69 -173t125 -126t189 -48.5z M760 1569l-365 319h291l291 -319h-217z" />
<glyph unicode="&#xd3;" horiz-adv-x="1516" d="M758 -25q-115 0 -206 30.5t-160.5 83t-118.5 124t-80 154t-45.5 172t-14.5 178.5q0 88 14.5 177.5t45.5 172t80 154t118.5 124t160.5 83t206 30.5t206 -30.5t160.5 -83t118.5 -124t80 -154t45 -172t14 -177.5q0 -89 -14 -178.5t-45 -172t-80 -154t-118.5 -124t-160.5 -83 t-206 -30.5zM758 180q75 0 134 23.5t103.5 63.5t76 93.5t51.5 113t29 122t9 121.5q0 62 -9 126.5t-29 124t-51.5 111.5t-76 90.5t-103.5 61t-134 22.5t-134 -23.5t-104 -63.5t-76.5 -93.5t-51.5 -113t-29 -122t-9 -120.5q0 -94 21 -189.5t69 -173t125 -126t189 -48.5z M760 1569h-217l290 319h291z" />
<glyph unicode="&#xd4;" horiz-adv-x="1516" d="M758 -25q-115 0 -206 30.5t-160.5 83t-118.5 124t-80 154t-45.5 172t-14.5 178.5q0 88 14.5 177.5t45.5 172t80 154t118.5 124t160.5 83t206 30.5t206 -30.5t160.5 -83t118.5 -124t80 -154t45 -172t14 -177.5q0 -89 -14 -178.5t-45 -172t-80 -154t-118.5 -124t-160.5 -83 t-206 -30.5zM758 180q75 0 134 23.5t103.5 63.5t76 93.5t51.5 113t29 122t9 121.5q0 62 -9 126.5t-29 124t-51.5 111.5t-76 90.5t-103.5 61t-134 22.5t-134 -23.5t-104 -63.5t-76.5 -93.5t-51.5 -113t-29 -122t-9 -120.5q0 -94 21 -189.5t69 -173t125 -126t189 -48.5z M952 1569l-192 161l-193 -161h-205l291 319h215l289 -319h-205z" />
<glyph unicode="&#xd5;" horiz-adv-x="1516" d="M758 -25q-115 0 -206 30.5t-160.5 83t-118.5 124t-80 154t-45.5 172t-14.5 178.5q0 88 14.5 177.5t45.5 172t80 154t118.5 124t160.5 83t206 30.5t206 -30.5t160.5 -83t118.5 -124t80 -154t45 -172t14 -177.5q0 -89 -14 -178.5t-45 -172t-80 -154t-118.5 -124t-160.5 -83 t-206 -30.5zM758 180q75 0 134 23.5t103.5 63.5t76 93.5t51.5 113t29 122t9 121.5q0 62 -9 126.5t-29 124t-51.5 111.5t-76 90.5t-103.5 61t-134 22.5t-134 -23.5t-104 -63.5t-76.5 -93.5t-51.5 -113t-29 -122t-9 -120.5q0 -94 21 -189.5t69 -173t125 -126t189 -48.5z M921 1591q-54 0 -99.5 15.5t-85.5 33.5l-77 33.5t-76 15.5q-38 0 -65.5 -21.5t-30.5 -68.5h-104q0 61 11.5 110.5t37.5 84.5t66.5 53.5t99.5 18.5q54 0 99.5 -15.5t85.5 -34t77 -34t76 -15.5q38 0 65.5 22t30.5 68h104q0 -61 -11.5 -110.5t-37.5 -84t-67 -53t-99 -18.5z" />
<glyph unicode="&#xd6;" horiz-adv-x="1516" d="M758 -25q-115 0 -206 30.5t-160.5 83t-118.5 124t-80 154t-45.5 172t-14.5 178.5q0 88 14.5 177.5t45.5 172t80 154t118.5 124t160.5 83t206 30.5t206 -30.5t160.5 -83t118.5 -124t80 -154t45 -172t14 -177.5q0 -89 -14 -178.5t-45 -172t-80 -154t-118.5 -124t-160.5 -83 t-206 -30.5zM758 180q75 0 134 23.5t103.5 63.5t76 93.5t51.5 113t29 122t9 121.5q0 62 -9 126.5t-29 124t-51.5 111.5t-76 90.5t-103.5 61t-134 22.5t-134 -23.5t-104 -63.5t-76.5 -93.5t-51.5 -113t-29 -122t-9 -120.5q0 -94 21 -189.5t69 -173t125 -126t189 -48.5z M575 1599q-27 0 -50.5 10t-41 27.5t-27.5 41t-10 50.5t10 50.5t27.5 41t41 27.5t50.5 10t50.5 -10t41 -27.5t27.5 -41t10 -50.5t-10 -50.5t-27.5 -41t-41 -27.5t-50.5 -10zM944 1599q-27 0 -50.5 10t-41 27.5t-27.5 41t-10 50.5t10 50.5t27.5 41t41 27.5t50.5 10t50.5 -10 t41 -27.5t27.5 -41t10 -50.5t-10 -50.5t-27.5 -41t-41 -27.5t-50.5 -10z" />
<glyph unicode="&#xd7;" horiz-adv-x="1290" d="M647 553l-323 -326l-154 154l326 324l-324 323l147 148l324 -324l324 326l153 -154l-325 -324l323 -323l-147 -148z" />
<glyph unicode="&#xd8;" horiz-adv-x="1495" d="M133 -25l146 213q-42 54 -71.5 117t-48 131t-27.5 139t-9 142q0 88 14.5 177.5t45.5 172t80 154t118.5 124t160.5 83t206 30.5q103 0 186 -24.5t149 -67.5l64 92h215l-148 -215q42 -54 71.5 -116.5t49 -130.5t28.5 -138.5t9 -140.5q0 -89 -14.5 -178.5t-45.5 -172 t-79.5 -154t-118 -124t-160.5 -83t-206 -30.5q-104 0 -187 24.5t-149 68.5l-64 -93h-215zM344 717q0 -85 17 -170.5t55 -159.5l547 801q-44 31 -97 48t-118 17q-75 0 -134 -23.5t-104 -63.5t-76.5 -93.5t-51.5 -113t-29 -122t-9 -120.5zM748 180q75 0 134 23.5t103.5 63.5 t76 93.5t51.5 113t29 122t9 121.5q0 83 -17 169t-55 158l-547 -798q44 -31 96.5 -48.5t119.5 -17.5z" />
<glyph unicode="&#xd9;" horiz-adv-x="1427" d="M713 -25q-111 0 -209.5 29t-171.5 95.5t-115.5 175t-42.5 268.5v891h213v-891q0 -108 25 -178t68.5 -111t103.5 -57.5t129 -16.5t128.5 16.5t104 57.5t69.5 111t25 178v891h213v-891q0 -158 -41 -266.5t-113.5 -175.5t-171.5 -96.5t-214 -29.5zM754 1569l-365 319h291 l291 -319h-217z" />
<glyph unicode="&#xda;" horiz-adv-x="1427" d="M713 -25q-111 0 -209.5 29t-171.5 95.5t-115.5 175t-42.5 268.5v891h213v-891q0 -108 25 -178t68.5 -111t103.5 -57.5t129 -16.5t128.5 16.5t104 57.5t69.5 111t25 178v891h213v-891q0 -158 -41 -266.5t-113.5 -175.5t-171.5 -96.5t-214 -29.5zM713 1569h-217l290 319 h291z" />
<glyph unicode="&#xdb;" horiz-adv-x="1427" d="M713 -25q-111 0 -209.5 29t-171.5 95.5t-115.5 175t-42.5 268.5v891h213v-891q0 -108 25 -178t68.5 -111t103.5 -57.5t129 -16.5t128.5 16.5t104 57.5t69.5 111t25 178v891h213v-891q0 -158 -41 -266.5t-113.5 -175.5t-171.5 -96.5t-214 -29.5zM905 1569l-192 161 l-193 -161h-205l291 319h215l289 -319h-205z" />
<glyph unicode="&#xdc;" horiz-adv-x="1427" d="M713 -25q-111 0 -209.5 29t-171.5 95.5t-115.5 175t-42.5 268.5v891h213v-891q0 -108 25 -178t68.5 -111t103.5 -57.5t129 -16.5t128.5 16.5t104 57.5t69.5 111t25 178v891h213v-891q0 -158 -41 -266.5t-113.5 -175.5t-171.5 -96.5t-214 -29.5zM528 1599q-27 0 -50.5 10 t-41 27.5t-27.5 41t-10 50.5t10 50.5t27.5 41t41 27.5t50.5 10t50.5 -10t41 -27.5t27.5 -41t10 -50.5t-10 -50.5t-27.5 -41t-41 -27.5t-50.5 -10zM897 1599q-27 0 -50.5 10t-41 27.5t-27.5 41t-10 50.5t10 50.5t27.5 41t41 27.5t50.5 10t50.5 -10t41 -27.5t27.5 -41 t10 -50.5t-10 -50.5t-27.5 -41t-41 -27.5t-50.5 -10z" />
<glyph unicode="&#xdd;" horiz-adv-x="1364" d="M575 0v561l-503 873h243l367 -656l367 656h243l-504 -871v-563h-213zM682 1569h-217l290 319h291z" />
<glyph unicode="&#xde;" horiz-adv-x="1315" d="M184 0v1434h213v-267h363q132 0 222.5 -38t146 -100t80 -140.5t24.5 -159.5q0 -75 -26 -153t-83 -141.5t-147 -103.5t-217 -40h-363v-291h-213zM772 496q67 0 112.5 21t74 54t41 74.5t12.5 83.5q0 37 -11 78.5t-38 76t-73.5 57t-117.5 22.5h-375v-467h375z" />
<glyph unicode="&#xdf;" horiz-adv-x="1143" d="M627 -25q-57 0 -106 9t-89 24l109 176q42 -12 88 -12q37 0 76 15t71 46t52 79t20 114q0 48 -15.5 94t-49.5 81.5t-88 57t-130 21.5h-45v197h45q45 0 83.5 12t66.5 36.5t43.5 61t15.5 84.5q0 88 -53 139.5t-152 51.5q-48 0 -89 -15.5t-71 -49.5t-46.5 -89t-16.5 -133 v-1286l-213 -99v1379q0 133 37.5 226.5t98.5 151.5t139 84.5t159 26.5q94 0 171 -27t132.5 -76t86 -118t30.5 -154q0 -48 -11.5 -93.5t-35 -84t-59.5 -68.5t-86 -49q64 -19 113.5 -53t83.5 -80t51.5 -102.5t17.5 -120.5q0 -108 -33 -193t-91.5 -143.5t-137.5 -89.5t-172 -31 z" />
<glyph unicode="&#xe0;" horiz-adv-x="1090" d="M956 0h-204v90q-20 -21 -48 -41.5t-63.5 -37t-79.5 -26.5t-96 -10q-80 0 -148 22t-118 66.5t-78.5 110t-28.5 152.5q0 90 34 155.5t90 108t128.5 62.5t149.5 20q72 0 138.5 -15.5t119.5 -46.5v58q0 59 -13.5 100t-41 66.5t-69.5 37t-100 11.5q-98 0 -169.5 -26 t-129.5 -69l-63 175q32 22 73 41.5t90 34.5t106 23.5t122 8.5q44 0 91 -5t91.5 -19.5t84 -41.5t69 -70.5t46.5 -106.5t17 -150v-678zM504 164q81 0 143.5 33t104.5 79v160q-44 23 -103 37t-121 14q-48 0 -90 -9t-73.5 -28.5t-49.5 -50t-18 -73.5q0 -75 52.5 -118.5 t154.5 -43.5zM598 1180l-365 319h291l291 -319h-217z" />
<glyph unicode="&#xe1;" horiz-adv-x="1090" d="M956 0h-204v90q-20 -21 -48 -41.5t-63.5 -37t-79.5 -26.5t-96 -10q-80 0 -148 22t-118 66.5t-78.5 110t-28.5 152.5q0 90 34 155.5t90 108t128.5 62.5t149.5 20q72 0 138.5 -15.5t119.5 -46.5v58q0 59 -13.5 100t-41 66.5t-69.5 37t-100 11.5q-98 0 -169.5 -26 t-129.5 -69l-63 175q32 22 73 41.5t90 34.5t106 23.5t122 8.5q44 0 91 -5t91.5 -19.5t84 -41.5t69 -70.5t46.5 -106.5t17 -150v-678zM504 164q81 0 143.5 33t104.5 79v160q-44 23 -103 37t-121 14q-48 0 -90 -9t-73.5 -28.5t-49.5 -50t-18 -73.5q0 -75 52.5 -118.5 t154.5 -43.5zM516 1180h-217l290 319h291z" />
<glyph unicode="&#xe2;" horiz-adv-x="1090" d="M956 0h-204v90q-20 -21 -48 -41.5t-63.5 -37t-79.5 -26.5t-96 -10q-80 0 -148 22t-118 66.5t-78.5 110t-28.5 152.5q0 90 34 155.5t90 108t128.5 62.5t149.5 20q72 0 138.5 -15.5t119.5 -46.5v58q0 59 -13.5 100t-41 66.5t-69.5 37t-100 11.5q-98 0 -169.5 -26 t-129.5 -69l-63 175q32 22 73 41.5t90 34.5t106 23.5t122 8.5q44 0 91 -5t91.5 -19.5t84 -41.5t69 -70.5t46.5 -106.5t17 -150v-678zM504 164q81 0 143.5 33t104.5 79v160q-44 23 -103 37t-121 14q-48 0 -90 -9t-73.5 -28.5t-49.5 -50t-18 -73.5q0 -75 52.5 -118.5 t154.5 -43.5zM749 1180l-192 161l-193 -161h-205l291 319h215l289 -319h-205z" />
<glyph unicode="&#xe3;" horiz-adv-x="1090" d="M956 0h-204v90q-20 -21 -48 -41.5t-63.5 -37t-79.5 -26.5t-96 -10q-80 0 -148 22t-118 66.5t-78.5 110t-28.5 152.5q0 90 34 155.5t90 108t128.5 62.5t149.5 20q72 0 138.5 -15.5t119.5 -46.5v58q0 59 -13.5 100t-41 66.5t-69.5 37t-100 11.5q-98 0 -169.5 -26 t-129.5 -69l-63 175q32 22 73 41.5t90 34.5t106 23.5t122 8.5q44 0 91 -5t91.5 -19.5t84 -41.5t69 -70.5t46.5 -106.5t17 -150v-678zM504 164q81 0 143.5 33t104.5 79v160q-44 23 -103 37t-121 14q-48 0 -90 -9t-73.5 -28.5t-49.5 -50t-18 -73.5q0 -75 52.5 -118.5 t154.5 -43.5zM718 1202q-54 0 -99.5 15.5t-85.5 33.5l-77 33.5t-76 15.5q-38 0 -65.5 -21.5t-30.5 -68.5h-104q0 61 11.5 110.5t37.5 84.5t66.5 53.5t99.5 18.5q54 0 99.5 -15.5t85.5 -34t77 -34t76 -15.5q38 0 65.5 22t30.5 68h104q0 -61 -11.5 -110.5t-37.5 -84t-67 -53 t-99 -18.5z" />
<glyph unicode="&#xe4;" horiz-adv-x="1090" d="M956 0h-204v90q-20 -21 -48 -41.5t-63.5 -37t-79.5 -26.5t-96 -10q-80 0 -148 22t-118 66.5t-78.5 110t-28.5 152.5q0 90 34 155.5t90 108t128.5 62.5t149.5 20q72 0 138.5 -15.5t119.5 -46.5v58q0 59 -13.5 100t-41 66.5t-69.5 37t-100 11.5q-98 0 -169.5 -26 t-129.5 -69l-63 175q32 22 73 41.5t90 34.5t106 23.5t122 8.5q44 0 91 -5t91.5 -19.5t84 -41.5t69 -70.5t46.5 -106.5t17 -150v-678zM504 164q81 0 143.5 33t104.5 79v160q-44 23 -103 37t-121 14q-48 0 -90 -9t-73.5 -28.5t-49.5 -50t-18 -73.5q0 -75 52.5 -118.5 t154.5 -43.5zM372 1210q-27 0 -50.5 10t-41 27.5t-27.5 41t-10 50.5t10 50.5t27.5 41t41 27.5t50.5 10t50.5 -10t41 -27.5t27.5 -41t10 -50.5t-10 -50.5t-27.5 -41t-41 -27.5t-50.5 -10zM741 1210q-27 0 -50.5 10t-41 27.5t-27.5 41t-10 50.5t10 50.5t27.5 41t41 27.5 t50.5 10t50.5 -10t41 -27.5t27.5 -41t10 -50.5t-10 -50.5t-27.5 -41t-41 -27.5t-50.5 -10z" />
<glyph unicode="&#xe5;" horiz-adv-x="1090" d="M956 0h-204v90q-20 -21 -48 -41.5t-63.5 -37t-79.5 -26.5t-96 -10q-80 0 -148 22t-118 66.5t-78.5 110t-28.5 152.5q0 90 34 155.5t90 108t128.5 62.5t149.5 20q72 0 138.5 -15.5t119.5 -46.5v58q0 59 -13.5 100t-41 66.5t-69.5 37t-100 11.5q-98 0 -169.5 -26 t-129.5 -69l-63 175q32 22 73 41.5t90 34.5t106 23.5t122 8.5q44 0 91 -5t91.5 -19.5t84 -41.5t69 -70.5t46.5 -106.5t17 -150v-678zM504 164q81 0 143.5 33t104.5 79v160q-44 23 -103 37t-121 14q-48 0 -90 -9t-73.5 -28.5t-49.5 -50t-18 -73.5q0 -75 52.5 -118.5 t154.5 -43.5zM557 1315q38 0 65 27.5t27 68.5q0 42 -27 69.5t-65 27.5q-39 0 -66 -27.5t-27 -69.5t27 -69t66 -27zM557 1162q-52 0 -97.5 19.5t-80 53.5t-54.5 79.5t-20 96.5q0 52 20 97t54.5 78.5t80 53t97.5 19.5q51 0 97 -19.5t80.5 -53t54.5 -78.5t20 -97 q0 -51 -20 -96.5t-54.5 -79.5t-80.5 -53.5t-97 -19.5z" />
<glyph unicode="&#xe6;" horiz-adv-x="1757" d="M1214 -25q-118 0 -210.5 43t-155.5 123q-48 -49 -99 -81t-101 -51t-97 -26.5t-86 -7.5q-80 0 -148 22t-118 66.5t-78.5 110t-28.5 152.5q0 90 34 155.5t90 108t128.5 62.5t149.5 20q72 0 138.5 -15.5t119.5 -46.5v58q0 59 -13.5 100t-41 66.5t-69.5 37t-100 11.5 q-98 0 -169.5 -26t-129.5 -69l-63 175q32 22 73 41.5t90 34.5t106 23.5t122 8.5q41 0 85.5 -5t87 -19.5t80.5 -41t67 -69.5q63 66 147.5 100.5t189.5 34.5q93 0 175 -29.5t143.5 -90t97 -152.5t35.5 -217q0 -34 -1.5 -72t-6.5 -66h-703q1 -65 23.5 -116.5t58.5 -88t83 -56 t98 -19.5q65 0 120.5 27t96.5 79l139 -143q-57 -68 -146.5 -110t-212.5 -42zM504 164q80 0 143 33t105 79v160q-44 23 -104 37t-120 14q-48 0 -90 -9t-73.5 -28.5t-49.5 -50t-18 -73.5q0 -75 52.5 -118.5t154.5 -43.5zM1214 883q-50 0 -95.5 -14t-80.5 -45t-57.5 -80 t-26.5 -119h496q-2 70 -23 119t-54 80t-75 45t-84 14z" />
<glyph unicode="&#xe7;" horiz-adv-x="1061" d="M528 -489q-74 0 -123.5 21.5t-80.5 55.5l104 76q12 -15 31.5 -23t48.5 -8q46 0 74 25t28 66q0 38 -31.5 63t-78.5 25q-49 0 -82 -21l-41 51l110 140q-90 11 -161 53t-121 111t-76.5 164t-26.5 212q0 129 32 231t91.5 172.5t144 108t189.5 37.5q146 0 247.5 -65 t147.5 -205l-202 -70q-23 60 -70 97.5t-115 37.5q-60 0 -106 -24t-77.5 -68.5t-48 -108t-16.5 -143.5t16.5 -143.5t47 -107.5t75 -67.5t101.5 -23.5q72 0 123.5 40t73.5 114l202 -64q-38 -134 -126 -207t-222 -86l-49 -79q60 0 102.5 -14.5t70 -38.5t40 -56t12.5 -68 q0 -46 -18 -84.5t-51.5 -66.5t-81.5 -43.5t-107 -15.5z" />
<glyph unicode="&#xe8;" horiz-adv-x="1120" d="M578 -25q-109 0 -197 37.5t-150 108t-95.5 172.5t-33.5 231t34 230.5t96.5 172t150 107.5t195.5 37q93 0 174.5 -29.5t143 -90t97 -152.5t35.5 -217q0 -34 -1.5 -72t-6.5 -66h-705q1 -65 23.5 -116.5t59.5 -88t84 -56t98 -19.5q65 0 120.5 27t96.5 79l139 -143 q-57 -68 -146 -110t-212 -42zM578 883q-50 0 -96 -14.5t-81.5 -46t-58.5 -82.5t-27 -124h500q-2 73 -23 124t-55 82.5t-75.5 46t-83.5 14.5zM621 1180l-365 319h291l291 -319h-217z" />
<glyph unicode="&#xe9;" horiz-adv-x="1120" d="M578 -25q-109 0 -197 37.5t-150 108t-95.5 172.5t-33.5 231t34 230.5t96.5 172t150 107.5t195.5 37q93 0 174.5 -29.5t143 -90t97 -152.5t35.5 -217q0 -34 -1.5 -72t-6.5 -66h-705q1 -65 23.5 -116.5t59.5 -88t84 -56t98 -19.5q65 0 120.5 27t96.5 79l139 -143 q-57 -68 -146 -110t-212 -42zM578 883q-50 0 -96 -14.5t-81.5 -46t-58.5 -82.5t-27 -124h500q-2 73 -23 124t-55 82.5t-75.5 46t-83.5 14.5zM539 1180h-217l290 319h291z" />
<glyph unicode="&#xea;" horiz-adv-x="1120" d="M578 -25q-109 0 -197 37.5t-150 108t-95.5 172.5t-33.5 231t34 230.5t96.5 172t150 107.5t195.5 37q93 0 174.5 -29.5t143 -90t97 -152.5t35.5 -217q0 -34 -1.5 -72t-6.5 -66h-705q1 -65 23.5 -116.5t59.5 -88t84 -56t98 -19.5q65 0 120.5 27t96.5 79l139 -143 q-57 -68 -146 -110t-212 -42zM578 883q-50 0 -96 -14.5t-81.5 -46t-58.5 -82.5t-27 -124h500q-2 73 -23 124t-55 82.5t-75.5 46t-83.5 14.5zM772 1180l-192 161l-193 -161h-205l291 319h215l289 -319h-205z" />
<glyph unicode="&#xeb;" horiz-adv-x="1120" d="M578 -25q-109 0 -197 37.5t-150 108t-95.5 172.5t-33.5 231t34 230.5t96.5 172t150 107.5t195.5 37q93 0 174.5 -29.5t143 -90t97 -152.5t35.5 -217q0 -34 -1.5 -72t-6.5 -66h-705q1 -65 23.5 -116.5t59.5 -88t84 -56t98 -19.5q65 0 120.5 27t96.5 79l139 -143 q-57 -68 -146 -110t-212 -42zM578 883q-50 0 -96 -14.5t-81.5 -46t-58.5 -82.5t-27 -124h500q-2 73 -23 124t-55 82.5t-75.5 46t-83.5 14.5zM395 1210q-27 0 -50.5 10t-41 27.5t-27.5 41t-10 50.5t10 50.5t27.5 41t41 27.5t50.5 10t50.5 -10t41 -27.5t27.5 -41t10 -50.5 t-10 -50.5t-27.5 -41t-41 -27.5t-50.5 -10zM764 1210q-27 0 -50.5 10t-41 27.5t-27.5 41t-10 50.5t10 50.5t27.5 41t41 27.5t50.5 10t50.5 -10t41 -27.5t27.5 -41t10 -50.5t-10 -50.5t-27.5 -41t-41 -27.5t-50.5 -10z" />
<glyph unicode="&#xec;" horiz-adv-x="524" d="M156 0v1047h213v-1047h-213zM305 1180l-365 319h291l291 -319h-217z" />
<glyph unicode="&#xed;" horiz-adv-x="524" d="M156 0v1047h213v-1047h-213zM223 1180h-217l290 319h291z" />
<glyph unicode="&#xee;" horiz-adv-x="524" d="M156 0v1047h213v-1047h-213zM456 1180l-192 161l-193 -161h-205l291 319h215l289 -319h-205z" />
<glyph unicode="&#xef;" horiz-adv-x="524" d="M156 0v1047h213v-1047h-213zM79 1210q-27 0 -50.5 10t-41 27.5t-27.5 41t-10 50.5t10 50.5t27.5 41t41 27.5t50.5 10t50.5 -10t41 -27.5t27.5 -41t10 -50.5t-10 -50.5t-27.5 -41t-41 -27.5t-50.5 -10zM448 1210q-27 0 -50.5 10t-41 27.5t-27.5 41t-10 50.5t10 50.5 t27.5 41t41 27.5t50.5 10t50.5 -10t41 -27.5t27.5 -41t10 -50.5t-10 -50.5t-27.5 -41t-41 -27.5t-50.5 -10z" />
<glyph unicode="&#xf0;" horiz-adv-x="1161" d="M862 1391l-96 -101q75 -61 130 -140.5t91 -174t54 -201.5t18 -223q0 -120 -29 -225t-88 -183t-149 -123t-213 -45q-103 0 -190.5 36t-151.5 100t-100 151.5t-36 190.5q0 106 36.5 194t99 152t145.5 99.5t176 35.5q47 0 90.5 -10.5t80 -29.5t65 -45.5t45.5 -57.5 q-25 118 -77.5 209t-129.5 153l-127 -133l-113 106l103 107q-51 20 -106.5 31t-115.5 14v180q104 -3 192.5 -24t164.5 -58l119 123zM578 733q-57 0 -105 -20t-83.5 -57t-55 -88.5t-19.5 -114.5q0 -59 20.5 -110t56.5 -88t84 -58t104 -21t104.5 21t84.5 58t56.5 87t20.5 109 q0 61 -20 113t-56 89.5t-85 58.5t-107 21z" />
<glyph unicode="&#xf1;" d="M801 0v625q0 66 -16 112.5t-44 76t-66 43t-83 13.5q-48 0 -89 -12.5t-71 -40.5t-47.5 -74.5t-17.5 -113.5v-629h-213v1047h213v-101q51 65 117 95t153 30q82 0 151 -23.5t119.5 -76.5t78.5 -138t28 -208v-625h-213zM751 1202q-54 0 -99.5 15.5t-85.5 33.5l-77 33.5 t-76 15.5q-38 0 -65.5 -21.5t-30.5 -68.5h-104q0 61 11.5 110.5t37.5 84.5t66.5 53.5t99.5 18.5q54 0 99.5 -15.5t85.5 -34t77 -34t76 -15.5q38 0 65.5 22t30.5 68h104q0 -61 -11.5 -110.5t-37.5 -84t-67 -53t-99 -18.5z" />
<glyph unicode="&#xf2;" horiz-adv-x="1161" d="M580 -25q-110 0 -198.5 37t-150.5 107.5t-95.5 172t-33.5 230.5t33.5 231t95.5 172.5t150.5 108t198.5 37.5q109 0 198 -37.5t151 -108t96 -172.5t34 -231t-34 -230.5t-96 -172t-151 -107.5t-198 -37zM580 176q61 0 110.5 24t84 68.5t53 108.5t18.5 145t-18.5 145.5 t-53 109.5t-84 69t-110.5 24t-110 -24t-83.5 -69t-53 -109.5t-18.5 -145.5t18.5 -145t53 -108.5t83.5 -68.5t110 -24zM621 1180l-365 319h291l291 -319h-217z" />
<glyph unicode="&#xf3;" horiz-adv-x="1161" d="M580 -25q-110 0 -198.5 37t-150.5 107.5t-95.5 172t-33.5 230.5t33.5 231t95.5 172.5t150.5 108t198.5 37.5q109 0 198 -37.5t151 -108t96 -172.5t34 -231t-34 -230.5t-96 -172t-151 -107.5t-198 -37zM580 176q61 0 110.5 24t84 68.5t53 108.5t18.5 145t-18.5 145.5 t-53 109.5t-84 69t-110.5 24t-110 -24t-83.5 -69t-53 -109.5t-18.5 -145.5t18.5 -145t53 -108.5t83.5 -68.5t110 -24zM539 1180h-217l290 319h291z" />
<glyph unicode="&#xf4;" horiz-adv-x="1161" d="M580 -25q-110 0 -198.5 37t-150.5 107.5t-95.5 172t-33.5 230.5t33.5 231t95.5 172.5t150.5 108t198.5 37.5q109 0 198 -37.5t151 -108t96 -172.5t34 -231t-34 -230.5t-96 -172t-151 -107.5t-198 -37zM580 176q61 0 110.5 24t84 68.5t53 108.5t18.5 145t-18.5 145.5 t-53 109.5t-84 69t-110.5 24t-110 -24t-83.5 -69t-53 -109.5t-18.5 -145.5t18.5 -145t53 -108.5t83.5 -68.5t110 -24zM772 1180l-192 161l-193 -161h-205l291 319h215l289 -319h-205z" />
<glyph unicode="&#xf5;" horiz-adv-x="1161" d="M580 -25q-110 0 -198.5 37t-150.5 107.5t-95.5 172t-33.5 230.5t33.5 231t95.5 172.5t150.5 108t198.5 37.5q109 0 198 -37.5t151 -108t96 -172.5t34 -231t-34 -230.5t-96 -172t-151 -107.5t-198 -37zM580 176q61 0 110.5 24t84 68.5t53 108.5t18.5 145t-18.5 145.5 t-53 109.5t-84 69t-110.5 24t-110 -24t-83.5 -69t-53 -109.5t-18.5 -145.5t18.5 -145t53 -108.5t83.5 -68.5t110 -24zM741 1202q-54 0 -99.5 15.5t-85.5 33.5l-77 33.5t-76 15.5q-38 0 -65.5 -21.5t-30.5 -68.5h-104q0 61 11.5 110.5t37.5 84.5t66.5 53.5t99.5 18.5 q54 0 99.5 -15.5t85.5 -34t77 -34t76 -15.5q38 0 65.5 22t30.5 68h104q0 -61 -11.5 -110.5t-37.5 -84t-67 -53t-99 -18.5z" />
<glyph unicode="&#xf6;" horiz-adv-x="1161" d="M580 -25q-110 0 -198.5 37t-150.5 107.5t-95.5 172t-33.5 230.5t33.5 231t95.5 172.5t150.5 108t198.5 37.5q109 0 198 -37.5t151 -108t96 -172.5t34 -231t-34 -230.5t-96 -172t-151 -107.5t-198 -37zM580 176q61 0 110.5 24t84 68.5t53 108.5t18.5 145t-18.5 145.5 t-53 109.5t-84 69t-110.5 24t-110 -24t-83.5 -69t-53 -109.5t-18.5 -145.5t18.5 -145t53 -108.5t83.5 -68.5t110 -24zM395 1210q-27 0 -50.5 10t-41 27.5t-27.5 41t-10 50.5t10 50.5t27.5 41t41 27.5t50.5 10t50.5 -10t41 -27.5t27.5 -41t10 -50.5t-10 -50.5t-27.5 -41 t-41 -27.5t-50.5 -10zM764 1210q-27 0 -50.5 10t-41 27.5t-27.5 41t-10 50.5t10 50.5t27.5 41t41 27.5t50.5 10t50.5 -10t41 -27.5t27.5 -41t10 -50.5t-10 -50.5t-27.5 -41t-41 -27.5t-50.5 -10z" />
<glyph unicode="&#xf7;" horiz-adv-x="1290" d="M164 600v205h962v-205h-962zM643 965q-29 0 -53 10t-42 27.5t-28 41t-10 50.5t10 50.5t28 41.5t42 28.5t53 10.5q28 0 53 -10.5t43 -28.5t28.5 -41.5t10.5 -50.5t-10.5 -50.5t-28.5 -41t-43 -27.5t-53 -10zM643 180q-29 0 -53 10t-42 27.5t-28 41t-10 50.5t10 51t28 41.5 t42 28t53 10.5q28 0 53 -10.5t43 -28t28.5 -41.5t10.5 -51t-10.5 -50.5t-28.5 -41t-43 -27.5t-53 -10z" />
<glyph unicode="&#xf8;" horiz-adv-x="1161" d="M102 -25l113 164q-54 71 -83.5 166.5t-29.5 216.5q0 129 33.5 231t95.5 172.5t150.5 108t198.5 37.5q139 0 243 -59l41 59h195l-115 -164q56 -71 85.5 -167.5t29.5 -217.5q0 -129 -34 -230.5t-96 -172t-151 -107.5t-198 -37q-72 0 -132.5 15.5t-111.5 44.5l-41 -60h-193z M580 176q61 0 110.5 24t84 68.5t53 108.5t18.5 145q0 56 -9 104.5t-28 88.5l-352 -508q52 -31 123 -31zM315 522q0 -111 33 -190l354 508q-26 15 -57 22.5t-65 7.5q-61 0 -110 -24t-83.5 -69t-53 -109.5t-18.5 -145.5z" />
<glyph unicode="&#xf9;" d="M791 0v100q-51 -65 -117.5 -95t-153.5 -30q-82 0 -151 23.5t-119.5 77t-78.5 138.5t-28 208v625h213v-625q0 -66 16 -112.5t44 -76.5t66 -43.5t83 -13.5q48 0 89 12.5t71.5 41t48 74.5t17.5 114v629h213v-1047h-213zM611 1180l-365 319h291l291 -319h-217z" />
<glyph unicode="&#xfa;" d="M791 0v100q-51 -65 -117.5 -95t-153.5 -30q-82 0 -151 23.5t-119.5 77t-78.5 138.5t-28 208v625h213v-625q0 -66 16 -112.5t44 -76.5t66 -43.5t83 -13.5q48 0 89 12.5t71.5 41t48 74.5t17.5 114v629h213v-1047h-213zM529 1180h-217l290 319h291z" />
<glyph unicode="&#xfb;" d="M791 0v100q-51 -65 -117.5 -95t-153.5 -30q-82 0 -151 23.5t-119.5 77t-78.5 138.5t-28 208v625h213v-625q0 -66 16 -112.5t44 -76.5t66 -43.5t83 -13.5q48 0 89 12.5t71.5 41t48 74.5t17.5 114v629h213v-1047h-213zM762 1180l-192 161l-193 -161h-205l291 319h215 l289 -319h-205z" />
<glyph unicode="&#xfc;" d="M791 0v100q-51 -65 -117.5 -95t-153.5 -30q-82 0 -151 23.5t-119.5 77t-78.5 138.5t-28 208v625h213v-625q0 -66 16 -112.5t44 -76.5t66 -43.5t83 -13.5q48 0 89 12.5t71.5 41t48 74.5t17.5 114v629h213v-1047h-213zM385 1210q-27 0 -50.5 10t-41 27.5t-27.5 41t-10 50.5 t10 50.5t27.5 41t41 27.5t50.5 10t50.5 -10t41 -27.5t27.5 -41t10 -50.5t-10 -50.5t-27.5 -41t-41 -27.5t-50.5 -10zM754 1210q-27 0 -50.5 10t-41 27.5t-27.5 41t-10 50.5t10 50.5t27.5 41t41 27.5t50.5 10t50.5 -10t41 -27.5t27.5 -41t10 -50.5t-10 -50.5t-27.5 -41 t-41 -27.5t-50.5 -10z" />
<glyph unicode="&#xfd;" horiz-adv-x="1102" d="M498 -397h-217l161 415l-391 1029h211l258 -685q11 -29 17 -48t12 -44q6 25 12 44t17 48l260 685h213zM508 1180h-217l290 319h291z" />
<glyph unicode="&#xfe;" horiz-adv-x="1151" d="M618 -25q-46 0 -83.5 9t-68.5 25t-55.5 36.5t-43.5 44.5v-403l-213 -99v1770l213 100v-495q41 46 101 77t150 31q99 0 179 -37.5t136 -108t86 -172.5t30 -231t-31.5 -230.5t-88 -172t-136 -107.5t-175.5 -37zM588 176q121 0 184.5 89t63.5 257q0 76 -16.5 140t-48.5 110 t-78 72t-105 26q-75 0 -130.5 -30.5t-90.5 -87.5v-455q18 -24 40.5 -46t50 -38.5t60 -26.5t70.5 -10z" />
<glyph unicode="&#xff;" horiz-adv-x="1102" d="M498 -397h-217l161 415l-391 1029h211l258 -685q11 -29 17 -48t12 -44q6 25 12 44t17 48l260 685h213zM364 1210q-27 0 -50.5 10t-41 27.5t-27.5 41t-10 50.5t10 50.5t27.5 41t41 27.5t50.5 10t50.5 -10t41 -27.5t27.5 -41t10 -50.5t-10 -50.5t-27.5 -41t-41 -27.5 t-50.5 -10zM733 1210q-27 0 -50.5 10t-41 27.5t-27.5 41t-10 50.5t10 50.5t27.5 41t41 27.5t50.5 10t50.5 -10t41 -27.5t27.5 -41t10 -50.5t-10 -50.5t-27.5 -41t-41 -27.5t-50.5 -10z" />
<glyph unicode="&#x100;" horiz-adv-x="1425" d="M1118 0l-114 330h-580l-117 -330h-221l518 1434h219l516 -1434h-221zM764 1006l-26.5 79t-22.5 82q-10 -37 -23.5 -81.5t-25.5 -79.5l-177 -488h449zM375 1612v176h676v-176h-676z" />
<glyph unicode="&#x101;" horiz-adv-x="1090" d="M956 0h-204v90q-20 -21 -48 -41.5t-63.5 -37t-79.5 -26.5t-96 -10q-80 0 -148 22t-118 66.5t-78.5 110t-28.5 152.5q0 90 34 155.5t90 108t128.5 62.5t149.5 20q72 0 138.5 -15.5t119.5 -46.5v58q0 59 -13.5 100t-41 66.5t-69.5 37t-100 11.5q-98 0 -169.5 -26 t-129.5 -69l-63 175q32 22 73 41.5t90 34.5t106 23.5t122 8.5q44 0 91 -5t91.5 -19.5t84 -41.5t69 -70.5t46.5 -106.5t17 -150v-678zM504 164q81 0 143.5 33t104.5 79v160q-44 23 -103 37t-121 14q-48 0 -90 -9t-73.5 -28.5t-49.5 -50t-18 -73.5q0 -75 52.5 -118.5 t154.5 -43.5zM219 1223v176h676v-176h-676z" />
<glyph unicode="&#x102;" horiz-adv-x="1425" d="M1118 0l-114 330h-580l-117 -330h-221l518 1434h219l516 -1434h-221zM764 1006l-26.5 79t-22.5 82q-10 -37 -23.5 -81.5t-25.5 -79.5l-177 -488h449zM713 1569q-99 0 -170.5 27.5t-118 74t-68.5 108t-22 130.5h180q0 -36 13.5 -66.5t39 -53t62.5 -35.5t84 -13t84 13 t63 35.5t39.5 53t13.5 66.5h181q0 -69 -22.5 -131t-69.5 -108.5t-119 -73.5t-170 -27z" />
<glyph unicode="&#x103;" horiz-adv-x="1090" d="M956 0h-204v90q-20 -21 -48 -41.5t-63.5 -37t-79.5 -26.5t-96 -10q-80 0 -148 22t-118 66.5t-78.5 110t-28.5 152.5q0 90 34 155.5t90 108t128.5 62.5t149.5 20q72 0 138.5 -15.5t119.5 -46.5v58q0 59 -13.5 100t-41 66.5t-69.5 37t-100 11.5q-98 0 -169.5 -26 t-129.5 -69l-63 175q32 22 73 41.5t90 34.5t106 23.5t122 8.5q44 0 91 -5t91.5 -19.5t84 -41.5t69 -70.5t46.5 -106.5t17 -150v-678zM504 164q81 0 143.5 33t104.5 79v160q-44 23 -103 37t-121 14q-48 0 -90 -9t-73.5 -28.5t-49.5 -50t-18 -73.5q0 -75 52.5 -118.5 t154.5 -43.5zM557 1180q-99 0 -170.5 27.5t-118 74t-68.5 108t-22 130.5h180q0 -36 13.5 -66.5t39 -53t62.5 -35.5t84 -13t84 13t63 35.5t39.5 53t13.5 66.5h181q0 -69 -22.5 -131t-69.5 -108.5t-119 -73.5t-170 -27z" />
<glyph unicode="&#x104;" horiz-adv-x="1425" d="M1120 -489q-55 0 -100.5 14t-78.5 41t-51 66t-18 89q0 91 62 162.5t184 116.5l-114 330h-580l-117 -330h-221l518 1434h219l516 -1434q-54 0 -106 -22t-93 -58t-66 -83t-25 -97q0 -53 29.5 -80t72.5 -27q29 0 50.5 12t33.5 27l104 -75q-31 -35 -84 -60.5t-135 -25.5z M764 1006l-26.5 79t-22.5 82q-10 -37 -23.5 -81.5t-25.5 -79.5l-177 -488h449z" />
<glyph unicode="&#x105;" horiz-adv-x="1090" d="M770 -489q-55 0 -100.5 14t-78.5 41t-51 66t-18 89q0 93 60.5 163.5t169.5 115.5v90q-20 -21 -48 -41.5t-63.5 -37t-79.5 -26.5t-96 -10q-80 0 -148 22t-118 66.5t-78.5 110t-28.5 152.5q0 90 34 155.5t90 108t128.5 62.5t149.5 20q72 0 138.5 -15.5t119.5 -46.5v58 q0 59 -13.5 100t-41 66.5t-69.5 37t-100 11.5q-98 0 -169.5 -26t-129.5 -69l-63 175q32 22 73 41.5t90 34.5t106 23.5t122 8.5q44 0 91 -5t91.5 -19.5t84 -41.5t69 -70.5t46.5 -106.5t17 -150v-678q-65 -13 -113.5 -42t-80.5 -65.5t-48 -76.5t-16 -76q0 -53 29.5 -80 t73.5 -27q29 0 50 12t34 27l104 -75q-31 -35 -84 -60.5t-135 -25.5zM504 164q81 0 143.5 33t104.5 79v160q-44 23 -103 37t-121 14q-48 0 -90 -9t-73.5 -28.5t-49.5 -50t-18 -73.5q0 -75 52.5 -118.5t154.5 -43.5z" />
<glyph unicode="&#x106;" horiz-adv-x="1331" d="M729 -25q-111 0 -198.5 30.5t-153.5 83t-112.5 124t-75.5 154t-42.5 172t-13.5 178.5q0 82 13.5 169t43 169.5t76.5 155.5t113 128t153 87t197 32q101 0 182 -24.5t141.5 -64.5t101.5 -91t63 -104l-195 -91q-26 41 -54.5 72.5t-63 53.5t-77.5 33t-98 11q-72 0 -127.5 -23 t-97 -63t-70.5 -93t-46.5 -112.5t-25.5 -122.5t-8 -122q0 -95 21.5 -191t67.5 -173t117 -125t169 -48q53 0 95.5 13.5t78 38t64 58.5t53.5 75l199 -76q-30 -70 -74.5 -128t-105 -99t-138 -64t-172.5 -23zM729 1569h-217l290 319h291z" />
<glyph unicode="&#x107;" horiz-adv-x="1061" d="M559 -25q-105 0 -189.5 37t-144 107.5t-91.5 172t-32 230.5t32 231t91.5 172.5t144 108t189.5 37.5q146 0 247.5 -65t147.5 -205l-202 -70q-23 60 -70 97.5t-115 37.5q-60 0 -106 -24t-77.5 -68.5t-48 -108t-16.5 -143.5t16.5 -143.5t47 -107.5t75 -67.5t101.5 -23.5 q72 0 123.5 40t73.5 114l202 -64q-42 -146 -142.5 -220.5t-256.5 -74.5zM512 1180h-217l290 319h291z" />
<glyph unicode="&#x108;" horiz-adv-x="1331" d="M729 -25q-111 0 -198.5 30.5t-153.5 83t-112.5 124t-75.5 154t-42.5 172t-13.5 178.5q0 82 13.5 169t43 169.5t76.5 155.5t113 128t153 87t197 32q101 0 182 -24.5t141.5 -64.5t101.5 -91t63 -104l-195 -91q-26 41 -54.5 72.5t-63 53.5t-77.5 33t-98 11q-72 0 -127.5 -23 t-97 -63t-70.5 -93t-46.5 -112.5t-25.5 -122.5t-8 -122q0 -95 21.5 -191t67.5 -173t117 -125t169 -48q53 0 95.5 13.5t78 38t64 58.5t53.5 75l199 -76q-30 -70 -74.5 -128t-105 -99t-138 -64t-172.5 -23zM921 1569l-192 161l-193 -161h-205l291 319h215l289 -319h-205z" />
<glyph unicode="&#x109;" horiz-adv-x="1061" d="M559 -25q-105 0 -189.5 37t-144 107.5t-91.5 172t-32 230.5t32 231t91.5 172.5t144 108t189.5 37.5q146 0 247.5 -65t147.5 -205l-202 -70q-23 60 -70 97.5t-115 37.5q-60 0 -106 -24t-77.5 -68.5t-48 -108t-16.5 -143.5t16.5 -143.5t47 -107.5t75 -67.5t101.5 -23.5 q72 0 123.5 40t73.5 114l202 -64q-42 -146 -142.5 -220.5t-256.5 -74.5zM745 1180l-192 161l-193 -161h-205l291 319h215l289 -319h-205z" />
<glyph unicode="&#x10a;" horiz-adv-x="1331" d="M729 -25q-111 0 -198.5 30.5t-153.5 83t-112.5 124t-75.5 154t-42.5 172t-13.5 178.5q0 82 13.5 169t43 169.5t76.5 155.5t113 128t153 87t197 32q101 0 182 -24.5t141.5 -64.5t101.5 -91t63 -104l-195 -91q-26 41 -54.5 72.5t-63 53.5t-77.5 33t-98 11q-72 0 -127.5 -23 t-97 -63t-70.5 -93t-46.5 -112.5t-25.5 -122.5t-8 -122q0 -95 21.5 -191t67.5 -173t117 -125t169 -48q53 0 95.5 13.5t78 38t64 58.5t53.5 75l199 -76q-30 -70 -74.5 -128t-105 -99t-138 -64t-172.5 -23zM729 1599q-27 0 -50.5 10t-41 27.5t-27.5 41t-10 50.5t10 50.5 t27.5 41t41 27.5t50.5 10t50.5 -10t41 -27.5t27.5 -41t10 -50.5t-10 -50.5t-27.5 -41t-41 -27.5t-50.5 -10z" />
<glyph unicode="&#x10b;" horiz-adv-x="1061" d="M559 -25q-105 0 -189.5 37t-144 107.5t-91.5 172t-32 230.5t32 231t91.5 172.5t144 108t189.5 37.5q146 0 247.5 -65t147.5 -205l-202 -70q-23 60 -70 97.5t-115 37.5q-60 0 -106 -24t-77.5 -68.5t-48 -108t-16.5 -143.5t16.5 -143.5t47 -107.5t75 -67.5t101.5 -23.5 q72 0 123.5 40t73.5 114l202 -64q-42 -146 -142.5 -220.5t-256.5 -74.5zM553 1210q-27 0 -50.5 10t-41 27.5t-27.5 41t-10 50.5t10 50.5t27.5 41t41 27.5t50.5 10t50.5 -10t41 -27.5t27.5 -41t10 -50.5t-10 -50.5t-27.5 -41t-41 -27.5t-50.5 -10z" />
<glyph unicode="&#x10c;" horiz-adv-x="1331" d="M729 -25q-111 0 -198.5 30.5t-153.5 83t-112.5 124t-75.5 154t-42.5 172t-13.5 178.5q0 82 13.5 169t43 169.5t76.5 155.5t113 128t153 87t197 32q101 0 182 -24.5t141.5 -64.5t101.5 -91t63 -104l-195 -91q-26 41 -54.5 72.5t-63 53.5t-77.5 33t-98 11q-72 0 -127.5 -23 t-97 -63t-70.5 -93t-46.5 -112.5t-25.5 -122.5t-8 -122q0 -95 21.5 -191t67.5 -173t117 -125t169 -48q53 0 95.5 13.5t78 38t64 58.5t53.5 75l199 -76q-30 -70 -74.5 -128t-105 -99t-138 -64t-172.5 -23zM835 1569h-215l-289 319h205l193 -162l192 162h205z" />
<glyph unicode="&#x10d;" horiz-adv-x="1061" d="M559 -25q-105 0 -189.5 37t-144 107.5t-91.5 172t-32 230.5t32 231t91.5 172.5t144 108t189.5 37.5q146 0 247.5 -65t147.5 -205l-202 -70q-23 60 -70 97.5t-115 37.5q-60 0 -106 -24t-77.5 -68.5t-48 -108t-16.5 -143.5t16.5 -143.5t47 -107.5t75 -67.5t101.5 -23.5 q72 0 123.5 40t73.5 114l202 -64q-42 -146 -142.5 -220.5t-256.5 -74.5zM659 1180h-215l-289 319h205l193 -162l192 162h205z" />
<glyph unicode="&#x10e;" horiz-adv-x="1403" d="M184 1434h402q125 0 224 -28.5t175 -78.5t130 -118.5t88.5 -148t50.5 -167.5t16 -176q0 -82 -14.5 -167.5t-48 -165t-86.5 -149.5t-130 -122.5t-179.5 -82.5t-233.5 -30h-394v1434zM612 201q82 0 146.5 21.5t113 58.5t82 87t55 107.5t31 119t9.5 122.5q0 97 -23.5 189.5 t-73.5 165t-128.5 117t-188.5 44.5h-238v-1032h215zM739 1569h-215l-289 319h205l193 -162l192 162h205z" />
<glyph unicode="&#x10f;" horiz-adv-x="1479" d="M537 -25q-99 0 -179.5 37.5t-137.5 108t-87.5 172.5t-30.5 231t32 230.5t89.5 172t137.5 107.5t176 37q86 0 146.5 -28t100.5 -70v407l213 99v-1479h-213v74q-42 -47 -100.5 -73t-146.5 -26zM567 176q72 0 127 31t90 88v461q-12 20 -32 40t-47.5 36.5t-62 27t-75.5 10.5 q-120 0 -186 -88.5t-66 -257.5q0 -76 17.5 -139.5t50 -110t79 -72.5t105.5 -26zM1428 1459v-16q0 -151 -50.5 -269.5t-150.5 -216.5l-66 49q14 28 25 78t19 111t12 129.5t4 134.5h207z" />
<glyph unicode="&#x110;" horiz-adv-x="1403" d="M184 618h-133v197h133v619h402q125 0 224 -28.5t175 -78.5t130 -118.5t88.5 -148t50.5 -167.5t16 -176q0 -82 -14.5 -167.5t-48 -165t-86.5 -149.5t-130 -122.5t-179.5 -82.5t-233.5 -30h-394v618zM612 201q82 0 146.5 21.5t113 58.5t82 87t55 107.5t31 119t9.5 122.5 q0 97 -23.5 189.5t-73.5 165t-128.5 117t-188.5 44.5h-238v-418h310v-197h-310v-417h215z" />
<glyph unicode="&#x111;" horiz-adv-x="1151" d="M997 1110v-1110h-213v74q-42 -47 -100.5 -73t-146.5 -26q-99 0 -179.5 37t-137.5 105t-87.5 163.5t-30.5 213.5q0 117 32 212t89.5 161.5t137.5 102.5t176 36q86 0 146.5 -28.5t100.5 -70.5v203h-260v180h260v90l213 99v-189h123v-180h-123zM567 176q72 0 127 31t90 88 v395q-12 20 -32 40.5t-47.5 37t-62 27t-75.5 10.5q-60 0 -106.5 -21.5t-79 -62t-49.5 -98t-17 -129.5q0 -65 17.5 -122.5t50 -101t79 -69t105.5 -25.5z" />
<glyph unicode="&#x112;" horiz-adv-x="1231" d="M184 0v1434h889v-201h-676v-393h437v-201h-437v-438h721v-201h-934zM291 1612v176h676v-176h-676z" />
<glyph unicode="&#x113;" horiz-adv-x="1120" d="M578 -25q-109 0 -197 37.5t-150 108t-95.5 172.5t-33.5 231t34 230.5t96.5 172t150 107.5t195.5 37q93 0 174.5 -29.5t143 -90t97 -152.5t35.5 -217q0 -34 -1.5 -72t-6.5 -66h-705q1 -65 23.5 -116.5t59.5 -88t84 -56t98 -19.5q65 0 120.5 27t96.5 79l139 -143 q-57 -68 -146 -110t-212 -42zM578 883q-50 0 -96 -14.5t-81.5 -46t-58.5 -82.5t-27 -124h500q-2 73 -23 124t-55 82.5t-75.5 46t-83.5 14.5zM242 1223v176h676v-176h-676z" />
<glyph unicode="&#x114;" horiz-adv-x="1231" d="M184 0v1434h889v-201h-676v-393h437v-201h-437v-438h721v-201h-934zM629 1569q-99 0 -170.5 27.5t-118 74t-68.5 108t-22 130.5h180q0 -36 13.5 -66.5t39 -53t62.5 -35.5t84 -13t84 13t63 35.5t39.5 53t13.5 66.5h181q0 -69 -22.5 -131t-69.5 -108.5t-119 -73.5t-170 -27 z" />
<glyph unicode="&#x115;" horiz-adv-x="1120" d="M578 -25q-109 0 -197 37.5t-150 108t-95.5 172.5t-33.5 231t34 230.5t96.5 172t150 107.5t195.5 37q93 0 174.5 -29.5t143 -90t97 -152.5t35.5 -217q0 -34 -1.5 -72t-6.5 -66h-705q1 -65 23.5 -116.5t59.5 -88t84 -56t98 -19.5q65 0 120.5 27t96.5 79l139 -143 q-57 -68 -146 -110t-212 -42zM578 883q-50 0 -96 -14.5t-81.5 -46t-58.5 -82.5t-27 -124h500q-2 73 -23 124t-55 82.5t-75.5 46t-83.5 14.5zM580 1180q-99 0 -170.5 27.5t-118 74t-68.5 108t-22 130.5h180q0 -36 13.5 -66.5t39 -53t62.5 -35.5t84 -13t84 13t63 35.5t39.5 53 t13.5 66.5h181q0 -69 -22.5 -131t-69.5 -108.5t-119 -73.5t-170 -27z" />
<glyph unicode="&#x116;" horiz-adv-x="1231" d="M184 0v1434h889v-201h-676v-393h437v-201h-437v-438h721v-201h-934zM629 1599q-27 0 -50.5 10t-41 27.5t-27.5 41t-10 50.5t10 50.5t27.5 41t41 27.5t50.5 10t50.5 -10t41 -27.5t27.5 -41t10 -50.5t-10 -50.5t-27.5 -41t-41 -27.5t-50.5 -10z" />
<glyph unicode="&#x117;" horiz-adv-x="1120" d="M578 -25q-109 0 -197 37.5t-150 108t-95.5 172.5t-33.5 231t34 230.5t96.5 172t150 107.5t195.5 37q93 0 174.5 -29.5t143 -90t97 -152.5t35.5 -217q0 -34 -1.5 -72t-6.5 -66h-705q1 -65 23.5 -116.5t59.5 -88t84 -56t98 -19.5q65 0 120.5 27t96.5 79l139 -143 q-57 -68 -146 -110t-212 -42zM578 883q-50 0 -96 -14.5t-81.5 -46t-58.5 -82.5t-27 -124h500q-2 73 -23 124t-55 82.5t-75.5 46t-83.5 14.5zM580 1210q-27 0 -50.5 10t-41 27.5t-27.5 41t-10 50.5t10 50.5t27.5 41t41 27.5t50.5 10t50.5 -10t41 -27.5t27.5 -41t10 -50.5 t-10 -50.5t-27.5 -41t-41 -27.5t-50.5 -10z" />
<glyph unicode="&#x118;" horiz-adv-x="1231" d="M831 -489q-55 0 -100.5 14t-78 41t-50.5 66t-18 89q0 45 16 86.5t45 77.5t71 65t93 50h-625v1434h889v-201h-676v-393h437v-201h-437v-438h721v-201h-55q-74 0 -130.5 -27t-95 -66.5t-58 -84.5t-19.5 -82q0 -53 29.5 -80t72.5 -27q29 0 50.5 12t33.5 27l105 -75 q-31 -35 -84.5 -60.5t-135.5 -25.5z" />
<glyph unicode="&#x119;" horiz-adv-x="1120" d="M610 -489q-55 0 -100.5 14t-78.5 41t-51 66t-18 89q0 81 48 146t133 108q-102 7 -184 47.5t-139 111t-87.5 169t-30.5 221.5q0 129 34 230.5t96.5 172t150 107.5t195.5 37q93 0 174.5 -29.5t143 -90t97 -152.5t35.5 -217q0 -34 -1.5 -72t-6.5 -66h-705q1 -65 23.5 -116.5 t59.5 -88t84 -56t98 -19.5q65 0 120.5 27t96.5 79l139 -143q-28 -35 -68 -63t-84 -54l-88 -52t-79 -57t-56.5 -70t-21.5 -91q0 -53 29.5 -80t72.5 -27q29 0 50.5 12t33.5 27l104 -75q-31 -35 -84 -60.5t-135 -25.5zM578 883q-50 0 -96 -14.5t-81.5 -46t-58.5 -82.5t-27 -124 h500q-2 73 -23 124t-55 82.5t-75.5 46t-83.5 14.5z" />
<glyph unicode="&#x11a;" horiz-adv-x="1231" d="M184 0v1434h889v-201h-676v-393h437v-201h-437v-438h721v-201h-934zM735 1569h-215l-289 319h205l193 -162l192 162h205z" />
<glyph unicode="&#x11b;" horiz-adv-x="1120" d="M578 -25q-109 0 -197 37.5t-150 108t-95.5 172.5t-33.5 231t34 230.5t96.5 172t150 107.5t195.5 37q93 0 174.5 -29.5t143 -90t97 -152.5t35.5 -217q0 -34 -1.5 -72t-6.5 -66h-705q1 -65 23.5 -116.5t59.5 -88t84 -56t98 -19.5q65 0 120.5 27t96.5 79l139 -143 q-57 -68 -146 -110t-212 -42zM578 883q-50 0 -96 -14.5t-81.5 -46t-58.5 -82.5t-27 -124h500q-2 73 -23 124t-55 82.5t-75.5 46t-83.5 14.5zM686 1180h-215l-289 319h205l193 -162l192 162h205z" />
<glyph unicode="&#x11c;" horiz-adv-x="1413" d="M758 -25q-111 0 -200 29t-158.5 80t-120 121.5t-83 152.5t-48 173.5t-15.5 185.5q0 87 16.5 176t50.5 171.5t85 154.5t120.5 125t157.5 83.5t195 30.5q103 0 179.5 -22.5t134.5 -60.5t100 -87t75 -102l-192 -111q-25 35 -53.5 66.5t-64.5 55.5t-80 38t-99 14 q-78 0 -138.5 -23t-105 -62.5t-75.5 -92t-49.5 -111.5t-27 -121.5t-8.5 -121.5q0 -103 23 -199t72 -170.5t125.5 -119t183.5 -44.5q67 0 123 23.5t96 64.5t62 96t22 119v29h-258v201h477v-187q0 -135 -40 -238.5t-110.5 -174t-165.5 -106.5t-206 -36zM950 1569l-192 161 l-193 -161h-205l291 319h215l289 -319h-205z" />
<glyph unicode="&#x11d;" horiz-adv-x="1151" d="M397 -246q115 7 190 27t119 50.5t61 71.5t17 89v92q-87 -109 -252 -109q-90 0 -168 34.5t-136.5 103.5t-92 171.5t-33.5 239.5q0 129 32 230.5t89.5 172t137.5 107.5t176 37q46 0 84 -8.5t68.5 -22.5t54 -31.5t40.5 -35.5v74h213v-967q0 -120 -24 -204t-82 -144 q-39 -40 -85.5 -65.5t-97 -41.5t-102.5 -23.5t-102 -11.5zM571 176q65 0 121.5 32t91.5 91v453q-16 26 -39.5 47.5t-51 37.5t-59 24.5t-63.5 8.5q-125 0 -190.5 -88.5t-65.5 -257.5q0 -80 18 -144.5t51 -109.5t80.5 -69.5t106.5 -24.5zM786 1180l-192 161l-193 -161h-205 l291 319h215l289 -319h-205z" />
<glyph unicode="&#x11e;" horiz-adv-x="1413" d="M758 -25q-111 0 -200 29t-158.5 80t-120 121.5t-83 152.5t-48 173.5t-15.5 185.5q0 87 16.5 176t50.5 171.5t85 154.5t120.5 125t157.5 83.5t195 30.5q103 0 179.5 -22.5t134.5 -60.5t100 -87t75 -102l-192 -111q-25 35 -53.5 66.5t-64.5 55.5t-80 38t-99 14 q-78 0 -138.5 -23t-105 -62.5t-75.5 -92t-49.5 -111.5t-27 -121.5t-8.5 -121.5q0 -103 23 -199t72 -170.5t125.5 -119t183.5 -44.5q67 0 123 23.5t96 64.5t62 96t22 119v29h-258v201h477v-187q0 -135 -40 -238.5t-110.5 -174t-165.5 -106.5t-206 -36zM758 1569 q-99 0 -170.5 27.5t-118 74t-68.5 108t-22 130.5h180q0 -36 13.5 -66.5t39 -53t62.5 -35.5t84 -13t84 13t63 35.5t39.5 53t13.5 66.5h181q0 -69 -22.5 -131t-69.5 -108.5t-119 -73.5t-170 -27z" />
<glyph unicode="&#x11f;" horiz-adv-x="1151" d="M397 -246q115 7 190 27t119 50.5t61 71.5t17 89v92q-87 -109 -252 -109q-90 0 -168 34.5t-136.5 103.5t-92 171.5t-33.5 239.5q0 129 32 230.5t89.5 172t137.5 107.5t176 37q46 0 84 -8.5t68.5 -22.5t54 -31.5t40.5 -35.5v74h213v-967q0 -120 -24 -204t-82 -144 q-39 -40 -85.5 -65.5t-97 -41.5t-102.5 -23.5t-102 -11.5zM571 176q65 0 121.5 32t91.5 91v453q-16 26 -39.5 47.5t-51 37.5t-59 24.5t-63.5 8.5q-125 0 -190.5 -88.5t-65.5 -257.5q0 -80 18 -144.5t51 -109.5t80.5 -69.5t106.5 -24.5zM594 1180q-99 0 -170.5 27.5t-118 74 t-68.5 108t-22 130.5h180q0 -36 13.5 -66.5t39 -53t62.5 -35.5t84 -13t84 13t63 35.5t39.5 53t13.5 66.5h181q0 -69 -22.5 -131t-69.5 -108.5t-119 -73.5t-170 -27z" />
<glyph unicode="&#x120;" horiz-adv-x="1413" d="M758 -25q-111 0 -200 29t-158.5 80t-120 121.5t-83 152.5t-48 173.5t-15.5 185.5q0 87 16.5 176t50.5 171.5t85 154.5t120.5 125t157.5 83.5t195 30.5q103 0 179.5 -22.5t134.5 -60.5t100 -87t75 -102l-192 -111q-25 35 -53.5 66.5t-64.5 55.5t-80 38t-99 14 q-78 0 -138.5 -23t-105 -62.5t-75.5 -92t-49.5 -111.5t-27 -121.5t-8.5 -121.5q0 -103 23 -199t72 -170.5t125.5 -119t183.5 -44.5q67 0 123 23.5t96 64.5t62 96t22 119v29h-258v201h477v-187q0 -135 -40 -238.5t-110.5 -174t-165.5 -106.5t-206 -36zM758 1599 q-27 0 -50.5 10t-41 27.5t-27.5 41t-10 50.5t10 50.5t27.5 41t41 27.5t50.5 10t50.5 -10t41 -27.5t27.5 -41t10 -50.5t-10 -50.5t-27.5 -41t-41 -27.5t-50.5 -10z" />
<glyph unicode="&#x121;" horiz-adv-x="1151" d="M397 -246q115 7 190 27t119 50.5t61 71.5t17 89v92q-87 -109 -252 -109q-90 0 -168 34.5t-136.5 103.5t-92 171.5t-33.5 239.5q0 129 32 230.5t89.5 172t137.5 107.5t176 37q46 0 84 -8.5t68.5 -22.5t54 -31.5t40.5 -35.5v74h213v-967q0 -120 -24 -204t-82 -144 q-39 -40 -85.5 -65.5t-97 -41.5t-102.5 -23.5t-102 -11.5zM571 176q65 0 121.5 32t91.5 91v453q-16 26 -39.5 47.5t-51 37.5t-59 24.5t-63.5 8.5q-125 0 -190.5 -88.5t-65.5 -257.5q0 -80 18 -144.5t51 -109.5t80.5 -69.5t106.5 -24.5zM594 1210q-27 0 -50.5 10t-41 27.5 t-27.5 41t-10 50.5t10 50.5t27.5 41t41 27.5t50.5 10t50.5 -10t41 -27.5t27.5 -41t10 -50.5t-10 -50.5t-27.5 -41t-41 -27.5t-50.5 -10z" />
<glyph unicode="&#x122;" horiz-adv-x="1413" d="M758 -25q-111 0 -200 29t-158.5 80t-120 121.5t-83 152.5t-48 173.5t-15.5 185.5q0 87 16.5 176t50.5 171.5t85 154.5t120.5 125t157.5 83.5t195 30.5q103 0 179.5 -22.5t134.5 -60.5t100 -87t75 -102l-192 -111q-25 35 -53.5 66.5t-64.5 55.5t-80 38t-99 14 q-78 0 -138.5 -23t-105 -62.5t-75.5 -92t-49.5 -111.5t-27 -121.5t-8.5 -121.5q0 -103 23 -199t72 -170.5t125.5 -119t183.5 -44.5q67 0 123 23.5t96 64.5t62 96t22 119v29h-258v201h477v-187q0 -135 -40 -238.5t-110.5 -174t-165.5 -106.5t-206 -36zM657 -496 q12 11 26.5 26t28.5 33.5t26.5 40t21.5 44.5q-28 0 -52 9.5t-42 26t-28.5 39.5t-10.5 50q0 31 10.5 56t28.5 42.5t42 27t50 9.5q28 0 53 -10t43.5 -28.5t29.5 -46t11 -63.5q0 -83 -43.5 -159.5t-124.5 -141.5z" />
<glyph unicode="&#x123;" horiz-adv-x="1151" d="M397 -246q115 7 190 27t119 50.5t61 71.5t17 89v92q-87 -109 -252 -109q-90 0 -168 34.5t-136.5 103.5t-92 171.5t-33.5 239.5q0 129 32 230.5t89.5 172t137.5 107.5t176 37q46 0 84 -8.5t68.5 -22.5t54 -31.5t40.5 -35.5v74h213v-967q0 -120 -24 -204t-82 -144 q-39 -40 -85.5 -65.5t-97 -41.5t-102.5 -23.5t-102 -11.5zM571 176q65 0 121.5 32t91.5 91v453q-16 26 -39.5 47.5t-51 37.5t-59 24.5t-63.5 8.5q-125 0 -190.5 -88.5t-65.5 -257.5q0 -80 18 -144.5t51 -109.5t80.5 -69.5t106.5 -24.5zM596 1210q-29 0 -53.5 10t-43.5 29 t-29.5 46.5t-10.5 62.5q0 83 43 159.5t125 141.5l69 -45q-12 -11 -26.5 -26t-28.5 -33.5t-26.5 -40t-20.5 -44.5q28 0 52 -9.5t42 -26t28.5 -39t10.5 -49.5q0 -31 -10.5 -56t-28.5 -43t-42 -27.5t-50 -9.5z" />
<glyph unicode="&#x124;" horiz-adv-x="1448" d="M1051 0v639h-654v-639h-213v1434h213v-594h654v594h213v-1434h-213zM915 1569l-192 161l-193 -161h-205l291 319h215l289 -319h-205z" />
<glyph unicode="&#x125;" d="M801 0v625q0 66 -16 112.5t-44 76t-66 43t-83 13.5q-48 0 -89 -12.5t-71 -40.5t-47.5 -74.5t-17.5 -113.5v-629h-213v1380l213 99v-533q51 65 117 95t153 30q82 0 151 -23.5t119.5 -76.5t78.5 -138t28 -208v-625h-213zM782 1567l-192 161l-193 -161h-205l291 319h215 l289 -319h-205z" />
<glyph unicode="&#x126;" horiz-adv-x="1448" d="M1051 0v639h-654v-639h-213v1053h-184v200h184v181h213v-181h654v181h213v-181h184v-200h-184v-1053h-213zM1051 840v213h-654v-213h654z" />
<glyph unicode="&#x127;" d="M367 1110v-225q51 65 117 95t153 30q82 0 151 -23.5t119.5 -77t78.5 -138.5t28 -208v-563h-213v563q0 66 -16 112.5t-44 76.5t-66 43.5t-83 13.5q-48 0 -89 -12.5t-71 -41t-47.5 -74.5t-17.5 -114v-567h-213v1110h-123v180h123v90l213 99v-189h290v-180h-290z" />
<glyph unicode="&#x128;" horiz-adv-x="602" d="M195 0v1434h213v-1434h-213zM463 1591q-54 0 -99.5 15.5t-85.5 33.5l-77 33.5t-76 15.5q-38 0 -65.5 -21.5t-30.5 -68.5h-104q0 61 11.5 110.5t37.5 84.5t66.5 53.5t99.5 18.5q54 0 99.5 -15.5t85.5 -34t77 -34t76 -15.5q38 0 65.5 22t30.5 68h104q0 -61 -11.5 -110.5 t-37.5 -84t-67 -53t-99 -18.5z" />
<glyph unicode="&#x129;" horiz-adv-x="524" d="M156 0v1047h213v-1047h-213zM425 1202q-54 0 -99.5 15.5t-85.5 33.5l-77 33.5t-76 15.5q-38 0 -65.5 -21.5t-30.5 -68.5h-104q0 61 11.5 110.5t37.5 84.5t66.5 53.5t99.5 18.5q54 0 99.5 -15.5t85.5 -34t77 -34t76 -15.5q38 0 65.5 22t30.5 68h104q0 -61 -11.5 -110.5 t-37.5 -84t-67 -53t-99 -18.5z" />
<glyph unicode="&#x12a;" horiz-adv-x="602" d="M195 0v1434h213v-1434h-213zM-36 1612v176h676v-176h-676z" />
<glyph unicode="&#x12b;" horiz-adv-x="524" d="M156 0v1047h213v-1047h-213zM-74 1223v176h676v-176h-676z" />
<glyph unicode="&#x12c;" horiz-adv-x="602" d="M195 0v1434h213v-1434h-213zM302 1569q-99 0 -170.5 27.5t-118 74t-68.5 108t-22 130.5h180q0 -36 13.5 -66.5t39 -53t62.5 -35.5t84 -13t84 13t63 35.5t39.5 53t13.5 66.5h181q0 -69 -22.5 -131t-69.5 -108.5t-119 -73.5t-170 -27z" />
<glyph unicode="&#x12d;" horiz-adv-x="524" d="M156 0v1047h213v-1047h-213zM264 1180q-99 0 -170.5 27.5t-118 74t-68.5 108t-22 130.5h180q0 -36 13.5 -66.5t39 -53t62.5 -35.5t84 -13t84 13t63 35.5t39.5 53t13.5 66.5h181q0 -69 -22.5 -131t-69.5 -108.5t-119 -73.5t-170 -27z" />
<glyph unicode="&#x12e;" horiz-adv-x="602" d="M211 -489q-56 0 -101.5 14t-78 41t-50.5 66t-18 89q0 93 61.5 164.5t170.5 114.5v1434h213v-1434q-73 -21 -124 -50.5t-83.5 -64t-47 -72t-14.5 -73.5q0 -53 29.5 -80t73.5 -27q29 0 50 12t34 27l104 -75q-31 -35 -84.5 -60.5t-134.5 -25.5z" />
<glyph unicode="&#x12f;" horiz-adv-x="524" d="M176 -489q-55 0 -100.5 14t-78.5 41t-51 66t-18 89q0 91 59.5 162.5t168.5 116.5v1047h213v-1047q-72 -21 -122 -50.5t-82 -64t-46.5 -72t-14.5 -73.5q0 -53 30 -80t73 -27q29 0 50 12t34 27l104 -75q-31 -35 -84 -60.5t-135 -25.5zM262 1210q-27 0 -50.5 10t-41 27.5 t-27.5 41t-10 50.5t10 50.5t27.5 41t41 27.5t50.5 10t50.5 -10t41 -27.5t27.5 -41t10 -50.5t-10 -50.5t-27.5 -41t-41 -27.5t-50.5 -10z" />
<glyph unicode="&#x130;" horiz-adv-x="602" d="M195 0v1434h213v-1434h-213zM302 1599q-27 0 -50.5 10t-41 27.5t-27.5 41t-10 50.5t10 50.5t27.5 41t41 27.5t50.5 10t50.5 -10t41 -27.5t27.5 -41t10 -50.5t-10 -50.5t-27.5 -41t-41 -27.5t-50.5 -10z" />
<glyph unicode="&#x131;" horiz-adv-x="524" d="M156 0v1047h213v-1047h-213z" />
<glyph unicode="&#x132;" horiz-adv-x="1686" d="M195 0v1434h213v-1434h-213zM1034 -25q-77 0 -146 17.5t-127.5 51.5t-104.5 84.5t-77 117.5l185 90q38 -81 107 -118.5t163 -37.5q51 0 98.5 13t84 49t59 100.5t22.5 167.5v924h213v-953q0 -100 -20.5 -176.5t-55 -133t-81.5 -94t-100 -60.5t-109.5 -32.5t-110.5 -9.5z " />
<glyph unicode="&#x133;" horiz-adv-x="1036" d="M156 0v1047h213v-1047h-213zM262 1210q-27 0 -50.5 10t-41 27.5t-27.5 41t-10 50.5t10 50.5t27.5 41t41 27.5t50.5 10t50.5 -10t41 -27.5t27.5 -41t10 -50.5t-10 -50.5t-27.5 -41t-41 -27.5t-50.5 -10zM383 -281q81 18 135.5 39.5t87.5 51.5t47.5 70.5t14.5 96.5v1070 h213v-998q0 -46 -4 -91.5t-15 -88.5t-30 -81.5t-50 -70.5q-36 -38 -74 -64t-76 -43.5t-75 -29t-72 -18.5zM774 1210q-27 0 -50.5 10t-41 27.5t-27.5 41t-10 50.5t10 50.5t27.5 41t41 27.5t50.5 10t50.5 -10t41 -27.5t27.5 -41t10 -50.5t-10 -50.5t-27.5 -41t-41 -27.5 t-50.5 -10z" />
<glyph unicode="&#x134;" d="M506 -25q-77 0 -146 17.5t-127.5 51.5t-104.5 84.5t-77 117.5l185 90q38 -81 107 -118.5t163 -37.5q51 0 98.5 13t84 49t59 100.5t22.5 167.5v924h213v-953q0 -100 -20.5 -176.5t-55 -133t-81.5 -94t-100 -60.5t-109.5 -32.5t-110.5 -9.5zM1065 1569l-192 161l-193 -161 h-205l291 319h215l289 -319h-205z" />
<glyph unicode="&#x135;" horiz-adv-x="524" d="M-129 -281q81 18 135.5 39.5t87.5 51.5t47.5 70.5t14.5 96.5v1070h213v-998q0 -46 -4 -91.5t-15 -88.5t-30 -81.5t-50 -70.5q-36 -38 -74 -64t-76 -43.5t-75 -29t-72 -18.5zM456 1180l-192 161l-193 -161h-205l291 319h215l289 -319h-205z" />
<glyph unicode="&#x136;" horiz-adv-x="1386" d="M1055 0l-404 750l-254 -308v-442h-213v1434h213v-695l553 695h246l-401 -504l510 -930h-250zM612 -496q12 11 26.5 26t28.5 33.5t26.5 40t21.5 44.5q-28 0 -52 9.5t-42 26t-28.5 39.5t-10.5 50q0 31 10.5 56t28.5 42.5t42 27t50 9.5q28 0 53 -10t43.5 -28.5t29.5 -46 t11 -63.5q0 -83 -43.5 -159.5t-124.5 -141.5z" />
<glyph unicode="&#x137;" horiz-adv-x="1126" d="M154 0v1378l213 101v-756l309 324h262l-287 -291l393 -756h-233l-309 602l-135 -135v-467h-213zM465 -496q12 11 26.5 26t28.5 33.5t26.5 40t21.5 44.5q-28 0 -52 9.5t-42 26t-28.5 39.5t-10.5 50q0 31 10.5 56t28.5 42.5t42 27t50 9.5q28 0 53 -10t43.5 -28.5t29.5 -46 t11 -63.5q0 -83 -43.5 -159.5t-124.5 -141.5z" />
<glyph unicode="&#x138;" horiz-adv-x="1116" d="M799 0l-260 485l-172 -209v-276h-213v1047h213v-486l387 486h241l-317 -392l356 -655h-235z" />
<glyph unicode="&#x139;" horiz-adv-x="1190" d="M184 0v1434h213v-1229h701v-205h-914zM300 1569h-217l290 319h291z" />
<glyph unicode="&#x13a;" horiz-adv-x="541" d="M164 0v1378l213 101v-1479h-213zM237 1549h-217l290 319h291z" />
<glyph unicode="&#x13b;" horiz-adv-x="1190" d="M184 0v1434h213v-1229h701v-205h-914zM536 -496q12 11 26.5 26t28.5 33.5t26.5 40t21.5 44.5q-28 0 -52 9.5t-42 26t-28.5 39.5t-10.5 50q0 31 10.5 56t28.5 42.5t42 27t50 9.5q28 0 53 -10t43.5 -28.5t29.5 -46t11 -63.5q0 -83 -43.5 -159.5t-124.5 -141.5z" />
<glyph unicode="&#x13c;" horiz-adv-x="541" d="M164 0v1378l213 101v-1479h-213zM169 -496q12 11 26.5 26t28.5 33.5t26.5 40t21.5 44.5q-28 0 -52 9.5t-42 26t-28.5 39.5t-10.5 50q0 31 10.5 56t28.5 42.5t42 27t50 9.5q28 0 53 -10t43.5 -28.5t29.5 -46t11 -63.5q0 -83 -43.5 -159.5t-124.5 -141.5z" />
<glyph unicode="&#x13d;" horiz-adv-x="1190" d="M184 0v1434h213v-1229h701v-205h-914zM404 1569h-215l-289 319h205l193 -162l192 162h205z" />
<glyph unicode="&#x13e;" horiz-adv-x="858" d="M164 0v1378l213 101v-1479h-213zM807 1459v-16q0 -151 -50.5 -269.5t-150.5 -216.5l-66 49q14 28 25 78t19 111t12 129.5t4 134.5h207z" />
<glyph unicode="&#x13f;" horiz-adv-x="1190" d="M184 0v1434h213v-1229h701v-205h-914zM887 586q-27 0 -50.5 10t-41 27.5t-27.5 41t-10 50.5t10 50.5t27.5 41t41 27.5t50.5 10t50.5 -10t41 -27.5t27.5 -41t10 -50.5t-10 -50.5t-27.5 -41t-41 -27.5t-50.5 -10z" />
<glyph unicode="&#x140;" horiz-adv-x="758" d="M164 0v1378l213 101v-1479h-213zM650 517q-27 0 -50.5 10t-41 27.5t-27.5 41t-10 50.5t10 50.5t27.5 41t41 27.5t50.5 10t50.5 -10t41 -27.5t27.5 -41t10 -50.5t-10 -50.5t-27.5 -41t-41 -27.5t-50.5 -10z" />
<glyph unicode="&#x141;" horiz-adv-x="1190" d="M184 0v487l-143 -108v235l143 109v711h213v-547l269 205v-236l-269 -205v-446h701v-205h-914z" />
<glyph unicode="&#x142;" horiz-adv-x="541" d="M164 0v489l-123 -94v199l123 94v690l213 101v-629l123 94v-199l-123 -94v-651h-213z" />
<glyph unicode="&#x143;" horiz-adv-x="1454" d="M1069 0l-620 973l-58 106l6 -106v-973h-213v1434h215l605 -957l59 -110l-6 108v959h213v-1434h-201zM748 1569h-217l290 319h291z" />
<glyph unicode="&#x144;" d="M801 0v625q0 66 -16 112.5t-44 76t-66 43t-83 13.5q-48 0 -89 -12.5t-71 -40.5t-47.5 -74.5t-17.5 -113.5v-629h-213v1047h213v-101q51 65 117 95t153 30q82 0 151 -23.5t119.5 -76.5t78.5 -138t28 -208v-625h-213zM549 1180h-217l290 319h291z" />
<glyph unicode="&#x145;" horiz-adv-x="1454" d="M1069 0l-620 973l-58 106l6 -106v-973h-213v1434h215l605 -957l59 -110l-6 108v959h213v-1434h-201zM633 -496q12 11 26.5 26t28.5 33.5t26.5 40t21.5 44.5q-28 0 -52 9.5t-42 26t-28.5 39.5t-10.5 50q0 31 10.5 56t28.5 42.5t42 27t50 9.5q28 0 53 -10t43.5 -28.5 t29.5 -46t11 -63.5q0 -83 -43.5 -159.5t-124.5 -141.5z" />
<glyph unicode="&#x146;" d="M801 0v625q0 66 -16 112.5t-44 76t-66 43t-83 13.5q-48 0 -89 -12.5t-71 -40.5t-47.5 -74.5t-17.5 -113.5v-629h-213v1047h213v-101q51 65 117 95t153 30q82 0 151 -23.5t119.5 -76.5t78.5 -138t28 -208v-625h-213zM489 -496q12 11 26.5 26t28.5 33.5t26.5 40t21.5 44.5 q-28 0 -52 9.5t-42 26t-28.5 39.5t-10.5 50q0 31 10.5 56t28.5 42.5t42 27t50 9.5q28 0 53 -10t43.5 -28.5t29.5 -46t11 -63.5q0 -83 -43.5 -159.5t-124.5 -141.5z" />
<glyph unicode="&#x147;" horiz-adv-x="1454" d="M1069 0l-620 973l-58 106l6 -106v-973h-213v1434h215l605 -957l59 -110l-6 108v959h213v-1434h-201zM854 1569h-215l-289 319h205l193 -162l192 162h205z" />
<glyph unicode="&#x148;" d="M801 0v625q0 66 -16 112.5t-44 76t-66 43t-83 13.5q-48 0 -89 -12.5t-71 -40.5t-47.5 -74.5t-17.5 -113.5v-629h-213v1047h213v-101q51 65 117 95t153 30q82 0 151 -23.5t119.5 -76.5t78.5 -138t28 -208v-625h-213zM696 1180h-215l-289 319h205l193 -162l192 162h205z " />
<glyph unicode="&#x149;" horiz-adv-x="1542" d="M1186 0v625q0 66 -16 112.5t-44 76t-66 43t-83 13.5q-48 0 -89 -12.5t-71 -40.5t-47.5 -74.5t-17.5 -113.5v-629h-213v1047h213v-101q51 65 117 95t153 30q82 0 151 -23.5t119.5 -76.5t78.5 -138t28 -208v-625h-213zM84 946q14 12 33.5 34.5t38.5 51t33.5 61t19.5 66.5 q-27 2 -52 13.5t-43.5 30t-30 44t-11.5 56.5q0 35 12.5 63.5t33 49t48 31.5t57.5 11q32 0 61.5 -11.5t52 -34.5t35.5 -58t13 -82q0 -59 -17.5 -115t-47.5 -104.5t-70.5 -89t-85.5 -68.5z" />
<glyph unicode="&#x14a;" horiz-adv-x="1454" d="M760 -342q81 18 135.5 39.5t87.5 51.5t47 70.5t14 96.5v123l-595 934l-58 106l6 -106v-973h-213v1434h215l605 -957l59 -110l-6 108v959h213v-1446q0 -46 -5 -91.5t-17 -88.5t-32 -81.5t-51 -70.5q-36 -38 -75 -64t-78 -44t-77.5 -29t-72.5 -19z" />
<glyph unicode="&#x14b;" d="M516 -342q81 18 135.5 39.5t87.5 51.5t47.5 70.5t14.5 96.5v709q0 66 -16 112.5t-44 76t-66 43t-83 13.5q-48 0 -89 -12.5t-71 -40.5t-47.5 -74.5t-17.5 -113.5v-629h-213v1047h213v-101q51 65 117 95t153 30q82 0 151 -23.5t119.5 -76.5t78.5 -138t28 -208v-637 q0 -46 -4 -91.5t-15 -88.5t-30 -81.5t-50 -70.5q-36 -38 -74 -64t-76 -44t-75 -29t-72 -19z" />
<glyph unicode="&#x14c;" horiz-adv-x="1516" d="M758 -25q-115 0 -206 30.5t-160.5 83t-118.5 124t-80 154t-45.5 172t-14.5 178.5q0 88 14.5 177.5t45.5 172t80 154t118.5 124t160.5 83t206 30.5t206 -30.5t160.5 -83t118.5 -124t80 -154t45 -172t14 -177.5q0 -89 -14 -178.5t-45 -172t-80 -154t-118.5 -124t-160.5 -83 t-206 -30.5zM758 180q75 0 134 23.5t103.5 63.5t76 93.5t51.5 113t29 122t9 121.5q0 62 -9 126.5t-29 124t-51.5 111.5t-76 90.5t-103.5 61t-134 22.5t-134 -23.5t-104 -63.5t-76.5 -93.5t-51.5 -113t-29 -122t-9 -120.5q0 -94 21 -189.5t69 -173t125 -126t189 -48.5z M422 1612v176h676v-176h-676z" />
<glyph unicode="&#x14d;" horiz-adv-x="1161" d="M580 -25q-110 0 -198.5 37t-150.5 107.5t-95.5 172t-33.5 230.5t33.5 231t95.5 172.5t150.5 108t198.5 37.5q109 0 198 -37.5t151 -108t96 -172.5t34 -231t-34 -230.5t-96 -172t-151 -107.5t-198 -37zM580 176q61 0 110.5 24t84 68.5t53 108.5t18.5 145t-18.5 145.5 t-53 109.5t-84 69t-110.5 24t-110 -24t-83.5 -69t-53 -109.5t-18.5 -145.5t18.5 -145t53 -108.5t83.5 -68.5t110 -24zM242 1223v176h676v-176h-676z" />
<glyph unicode="&#x14e;" horiz-adv-x="1516" d="M758 -25q-115 0 -206 30.5t-160.5 83t-118.5 124t-80 154t-45.5 172t-14.5 178.5q0 88 14.5 177.5t45.5 172t80 154t118.5 124t160.5 83t206 30.5t206 -30.5t160.5 -83t118.5 -124t80 -154t45 -172t14 -177.5q0 -89 -14 -178.5t-45 -172t-80 -154t-118.5 -124t-160.5 -83 t-206 -30.5zM758 180q75 0 134 23.5t103.5 63.5t76 93.5t51.5 113t29 122t9 121.5q0 62 -9 126.5t-29 124t-51.5 111.5t-76 90.5t-103.5 61t-134 22.5t-134 -23.5t-104 -63.5t-76.5 -93.5t-51.5 -113t-29 -122t-9 -120.5q0 -94 21 -189.5t69 -173t125 -126t189 -48.5z M760 1569q-99 0 -170.5 27.5t-118 74t-68.5 108t-22 130.5h180q0 -36 13.5 -66.5t39 -53t62.5 -35.5t84 -13t84 13t63 35.5t39.5 53t13.5 66.5h181q0 -69 -22.5 -131t-69.5 -108.5t-119 -73.5t-170 -27z" />
<glyph unicode="&#x14f;" horiz-adv-x="1161" d="M580 -25q-110 0 -198.5 37t-150.5 107.5t-95.5 172t-33.5 230.5t33.5 231t95.5 172.5t150.5 108t198.5 37.5q109 0 198 -37.5t151 -108t96 -172.5t34 -231t-34 -230.5t-96 -172t-151 -107.5t-198 -37zM580 176q61 0 110.5 24t84 68.5t53 108.5t18.5 145t-18.5 145.5 t-53 109.5t-84 69t-110.5 24t-110 -24t-83.5 -69t-53 -109.5t-18.5 -145.5t18.5 -145t53 -108.5t83.5 -68.5t110 -24zM580 1180q-99 0 -170.5 27.5t-118 74t-68.5 108t-22 130.5h180q0 -36 13.5 -66.5t39 -53t62.5 -35.5t84 -13t84 13t63 35.5t39.5 53t13.5 66.5h181 q0 -69 -22.5 -131t-69.5 -108.5t-119 -73.5t-170 -27z" />
<glyph unicode="&#x150;" horiz-adv-x="1516" d="M758 -25q-115 0 -206 30.5t-160.5 83t-118.5 124t-80 154t-45.5 172t-14.5 178.5q0 88 14.5 177.5t45.5 172t80 154t118.5 124t160.5 83t206 30.5t206 -30.5t160.5 -83t118.5 -124t80 -154t45 -172t14 -177.5q0 -89 -14 -178.5t-45 -172t-80 -154t-118.5 -124t-160.5 -83 t-206 -30.5zM758 180q75 0 134 23.5t103.5 63.5t76 93.5t51.5 113t29 122t9 121.5q0 62 -9 126.5t-29 124t-51.5 111.5t-76 90.5t-103.5 61t-134 22.5t-134 -23.5t-104 -63.5t-76.5 -93.5t-51.5 -113t-29 -122t-9 -120.5q0 -94 21 -189.5t69 -173t125 -126t189 -48.5z M586 1569h-218l291 319h291zM1016 1569h-217l290 319h291z" />
<glyph unicode="&#x151;" horiz-adv-x="1161" d="M580 -25q-110 0 -198.5 37t-150.5 107.5t-95.5 172t-33.5 230.5t33.5 231t95.5 172.5t150.5 108t198.5 37.5q109 0 198 -37.5t151 -108t96 -172.5t34 -231t-34 -230.5t-96 -172t-151 -107.5t-198 -37zM580 176q61 0 110.5 24t84 68.5t53 108.5t18.5 145t-18.5 145.5 t-53 109.5t-84 69t-110.5 24t-110 -24t-83.5 -69t-53 -109.5t-18.5 -145.5t18.5 -145t53 -108.5t83.5 -68.5t110 -24zM406 1180h-218l291 319h291zM836 1180h-217l290 319h291z" />
<glyph unicode="&#x152;" horiz-adv-x="1831" d="M936 0q-42 -12 -89 -18.5t-99 -6.5q-115 0 -206 30.5t-160.5 83t-118.5 124t-80 154t-45.5 172t-14.5 178.5q0 82 13 169t43 169.5t78 155.5t117.5 128t162 87t211.5 32q102 0 188 -24h778v-201h-573v-393h334v-201h-334v-438h618v-201h-823zM748 180q54 0 98.5 12 t81.5 33v983q-77 47 -180 47q-75 0 -134.5 -23.5t-104.5 -64t-76.5 -94t-51 -113.5t-28.5 -122.5t-9 -120.5q0 -95 21 -191t69 -173t125 -125t189 -48z" />
<glyph unicode="&#x153;" horiz-adv-x="1860" d="M1317 -25q-119 0 -211.5 43.5t-155.5 126.5q-63 -83 -156.5 -126.5t-213.5 -43.5q-110 0 -198.5 37t-150.5 107.5t-95.5 172t-33.5 230.5t33.5 231t95.5 172.5t150.5 108t198.5 37.5q120 0 213.5 -44t156.5 -128q62 84 155 128t212 44q93 0 175 -29.5t143 -90 t96.5 -152.5t35.5 -217q0 -34 -1.5 -72t-6.5 -66h-704q1 -65 23.5 -116.5t59 -88t83.5 -56t98 -19.5q65 0 121 27t96 79l139 -143q-57 -68 -146 -110t-212 -42zM1317 883q-50 0 -95.5 -14.5t-81.5 -46t-58.5 -82.5t-26.5 -124h499q-2 73 -23 124t-54.5 82.5t-75.5 46 t-84 14.5zM580 176q61 0 110.5 24t84 68.5t53 108.5t18.5 145t-18.5 145.5t-53 109.5t-84 69t-110.5 24t-110 -24t-83.5 -69t-53 -109.5t-18.5 -145.5t18.5 -145t53 -108.5t83.5 -68.5t110 -24z" />
<glyph unicode="&#x154;" horiz-adv-x="1384" d="M184 0v1434h604q132 0 221 -36t143 -95.5t76.5 -135.5t22.5 -157q0 -62 -18 -125t-55.5 -118.5t-96.5 -98t-141 -64.5l295 -604h-244l-282 586h-312v-586h-213zM793 791q67 0 112 18.5t73 49.5t40 70t12 81q0 37 -10.5 76t-37.5 71t-73 52t-116 20h-396v-438h396z M637 1569h-217l290 319h291z" />
<glyph unicode="&#x155;" horiz-adv-x="827" d="M154 0v1047h213v-127q37 80 96 115.5t137 35.5q104 0 176 -63l-31 -197q-29 20 -68.5 35.5t-96.5 15.5q-36 0 -73.5 -12.5t-68.5 -44t-51 -84t-20 -133.5v-588h-213zM453 1180h-217l290 319h291z" />
<glyph unicode="&#x156;" horiz-adv-x="1384" d="M184 0v1434h604q132 0 221 -36t143 -95.5t76.5 -135.5t22.5 -157q0 -62 -18 -125t-55.5 -118.5t-96.5 -98t-141 -64.5l295 -604h-244l-282 586h-312v-586h-213zM793 791q67 0 112 18.5t73 49.5t40 70t12 81q0 37 -10.5 76t-37.5 71t-73 52t-116 20h-396v-438h396z M565 -496q12 11 26.5 26t28.5 33.5t26.5 40t21.5 44.5q-28 0 -52 9.5t-42 26t-28.5 39.5t-10.5 50q0 31 10.5 56t28.5 42.5t42 27t50 9.5q28 0 53 -10t43.5 -28.5t29.5 -46t11 -63.5q0 -83 -43.5 -159.5t-124.5 -141.5z" />
<glyph unicode="&#x157;" horiz-adv-x="827" d="M154 0v1047h213v-127q37 80 96 115.5t137 35.5q104 0 176 -63l-31 -197q-29 20 -68.5 35.5t-96.5 15.5q-36 0 -73.5 -12.5t-68.5 -44t-51 -84t-20 -133.5v-588h-213zM158 -536q12 11 26.5 26t28.5 33.5t26.5 40t21.5 44.5q-28 0 -52 9.5t-42 26t-28.5 39.5t-10.5 50 q0 31 10.5 56t28.5 42.5t42 27t50 9.5q28 0 53 -10t43.5 -28.5t29.5 -46t11 -63.5q0 -83 -43.5 -159.5t-124.5 -141.5z" />
<glyph unicode="&#x158;" horiz-adv-x="1384" d="M184 0v1434h604q132 0 221 -36t143 -95.5t76.5 -135.5t22.5 -157q0 -62 -18 -125t-55.5 -118.5t-96.5 -98t-141 -64.5l295 -604h-244l-282 586h-312v-586h-213zM793 791q67 0 112 18.5t73 49.5t40 70t12 81q0 37 -10.5 76t-37.5 71t-73 52t-116 20h-396v-438h396z M764 1569h-215l-289 319h205l193 -162l192 162h205z" />
<glyph unicode="&#x159;" horiz-adv-x="827" d="M154 0v1047h213v-127q37 80 96 115.5t137 35.5q104 0 176 -63l-31 -197q-29 20 -68.5 35.5t-96.5 15.5q-36 0 -73.5 -12.5t-68.5 -44t-51 -84t-20 -133.5v-588h-213zM584 1180h-215l-289 319h205l193 -162l192 162h205z" />
<glyph unicode="&#x15a;" horiz-adv-x="1237" d="M854 1108q-13 31 -36 57.5t-56 46t-75.5 30.5t-94.5 11q-103 0 -161 -45t-58 -127q0 -51 32 -86.5t84 -62.5t118.5 -49.5t136 -49t136 -61t118.5 -84t84 -119t32 -166.5q0 -103 -37.5 -182.5t-103.5 -134t-155.5 -83t-192.5 -28.5q-96 0 -179.5 24.5t-151 70t-116.5 110 t-76 144.5l201 73q22 -48 54.5 -88t74.5 -68.5t92.5 -44.5t108.5 -16t106 14t82 42t53 69.5t19 95.5q0 64 -32 107.5t-84 75.5t-118.5 56l-136 49t-136 56t-118.5 76t-84 108t-32 154q0 76 30.5 144t88.5 119.5t143 81.5t194 30q91 0 165 -21.5t129.5 -59.5t92.5 -90 t56 -113zM609 1569h-217l290 319h291z" />
<glyph unicode="&#x15b;" horiz-adv-x="973" d="M477 -25q-62 0 -121 12t-110.5 34t-93.5 53.5t-70 70.5l151 129q16 -15 39 -33.5t53 -34.5t67 -27t81 -11q40 0 74 6t58.5 19t38 34.5t13.5 53.5q0 37 -25.5 63.5t-66.5 48t-93 41t-105 41.5q-49 21 -96 46t-83.5 60t-59 83.5t-22.5 117.5q0 70 28.5 124t78 90.5 t116 55.5t142.5 19q67 0 123.5 -13t102 -35t80.5 -50.5t61 -59.5l-154 -122q-14 14 -33.5 29.5t-45.5 28.5t-59 21.5t-75 8.5q-68 0 -107.5 -25t-39.5 -72q0 -30 21 -52.5t57 -41.5t82.5 -36.5l97.5 -37.5q54 -21 106 -47t92.5 -64t65 -92t24.5 -130q0 -75 -28 -132.5 t-79.5 -96t-124 -58t-161.5 -19.5zM402 1180h-217l290 319h291z" />
<glyph unicode="&#x15c;" horiz-adv-x="1237" d="M854 1108q-13 31 -36 57.5t-56 46t-75.5 30.5t-94.5 11q-103 0 -161 -45t-58 -127q0 -51 32 -86.5t84 -62.5t118.5 -49.5t136 -49t136 -61t118.5 -84t84 -119t32 -166.5q0 -103 -37.5 -182.5t-103.5 -134t-155.5 -83t-192.5 -28.5q-96 0 -179.5 24.5t-151 70t-116.5 110 t-76 144.5l201 73q22 -48 54.5 -88t74.5 -68.5t92.5 -44.5t108.5 -16t106 14t82 42t53 69.5t19 95.5q0 64 -32 107.5t-84 75.5t-118.5 56l-136 49t-136 56t-118.5 76t-84 108t-32 154q0 76 30.5 144t88.5 119.5t143 81.5t194 30q91 0 165 -21.5t129.5 -59.5t92.5 -90 t56 -113zM801 1569l-192 161l-193 -161h-205l291 319h215l289 -319h-205z" />
<glyph unicode="&#x15d;" horiz-adv-x="973" d="M477 -25q-62 0 -121 12t-110.5 34t-93.5 53.5t-70 70.5l151 129q16 -15 39 -33.5t53 -34.5t67 -27t81 -11q40 0 74 6t58.5 19t38 34.5t13.5 53.5q0 37 -25.5 63.5t-66.5 48t-93 41t-105 41.5q-49 21 -96 46t-83.5 60t-59 83.5t-22.5 117.5q0 70 28.5 124t78 90.5 t116 55.5t142.5 19q67 0 123.5 -13t102 -35t80.5 -50.5t61 -59.5l-154 -122q-14 14 -33.5 29.5t-45.5 28.5t-59 21.5t-75 8.5q-68 0 -107.5 -25t-39.5 -72q0 -30 21 -52.5t57 -41.5t82.5 -36.5l97.5 -37.5q54 -21 106 -47t92.5 -64t65 -92t24.5 -130q0 -75 -28 -132.5 t-79.5 -96t-124 -58t-161.5 -19.5zM668 1180l-192 161l-193 -161h-205l291 319h215l289 -319h-205z" />
<glyph unicode="&#x15e;" horiz-adv-x="1237" d="M614 -489q-74 0 -123.5 21.5t-80.5 55.5l104 76q12 -15 31.5 -23t48.5 -8q46 0 74 25t28 66q0 38 -31.5 63t-78.5 25q-49 0 -82 -21l-41 51l108 135q-86 7 -160.5 34t-135 72t-104.5 105.5t-69 135.5l201 73q22 -48 54.5 -88t74.5 -68.5t92.5 -44.5t108.5 -16t106 14 t82 42t53 69.5t19 95.5q0 64 -32 107.5t-84 75.5t-118.5 56l-136 49t-136 56t-118.5 76t-84 108t-32 154q0 76 30.5 144t88.5 119.5t143 81.5t194 30q91 0 165 -21.5t129.5 -59.5t92.5 -90t56 -113l-197 -66q-13 31 -36 57.5t-56 46t-75.5 30.5t-94.5 11q-103 0 -161 -45 t-58 -127q0 -51 32 -86.5t84 -62.5t118.5 -49.5t136 -49t136 -61t118.5 -84t84 -119t32 -166.5q0 -93 -31.5 -168t-87 -129t-132 -86t-167.5 -40l-49 -82q60 0 102.5 -14.5t70 -38.5t40 -56t12.5 -68q0 -46 -18 -84.5t-51.5 -66.5t-81.5 -43.5t-107 -15.5z" />
<glyph unicode="&#x15f;" horiz-adv-x="973" d="M449 -489q-75 0 -124.5 21.5t-80.5 55.5l104 76q13 -15 32 -23t48 -8q46 0 74 25t28 66q0 38 -31.5 63t-78.5 25q-49 0 -82 -21l-41 51l111 138q-52 6 -100.5 20t-90.5 35t-76.5 48.5t-58.5 61.5l151 129q16 -15 39 -33.5t53 -34.5t67 -27t81 -11q40 0 74 6t58.5 19 t38 34.5t13.5 53.5q0 37 -25.5 63.5t-66.5 48t-93 41t-105 41.5q-49 21 -96 46t-83.5 60t-59 83.5t-22.5 117.5q0 70 28.5 124t78 90.5t116 55.5t142.5 19q67 0 123.5 -13t102 -35t80.5 -50.5t61 -59.5l-154 -122q-14 14 -33.5 29.5t-45.5 28.5t-59 21.5t-75 8.5 q-68 0 -107.5 -25t-39.5 -72q0 -30 21 -52.5t57 -41.5t82.5 -36.5l97.5 -37.5q54 -21 106 -47t92.5 -64t65 -92t24.5 -130q0 -70 -24 -124t-68.5 -92.5t-107 -60t-140.5 -27.5l-49 -79q60 0 103 -14.5t70 -38.5t40 -56t13 -68q0 -46 -18 -84.5t-52 -66.5t-81.5 -43.5 t-106.5 -15.5z" />
<glyph unicode="&#x160;" horiz-adv-x="1237" d="M854 1108q-13 31 -36 57.5t-56 46t-75.5 30.5t-94.5 11q-103 0 -161 -45t-58 -127q0 -51 32 -86.5t84 -62.5t118.5 -49.5t136 -49t136 -61t118.5 -84t84 -119t32 -166.5q0 -103 -37.5 -182.5t-103.5 -134t-155.5 -83t-192.5 -28.5q-96 0 -179.5 24.5t-151 70t-116.5 110 t-76 144.5l201 73q22 -48 54.5 -88t74.5 -68.5t92.5 -44.5t108.5 -16t106 14t82 42t53 69.5t19 95.5q0 64 -32 107.5t-84 75.5t-118.5 56l-136 49t-136 56t-118.5 76t-84 108t-32 154q0 76 30.5 144t88.5 119.5t143 81.5t194 30q91 0 165 -21.5t129.5 -59.5t92.5 -90 t56 -113zM715 1569h-215l-289 319h205l193 -162l192 162h205z" />
<glyph unicode="&#x161;" horiz-adv-x="973" d="M477 -25q-62 0 -121 12t-110.5 34t-93.5 53.5t-70 70.5l151 129q16 -15 39 -33.5t53 -34.5t67 -27t81 -11q40 0 74 6t58.5 19t38 34.5t13.5 53.5q0 37 -25.5 63.5t-66.5 48t-93 41t-105 41.5q-49 21 -96 46t-83.5 60t-59 83.5t-22.5 117.5q0 70 28.5 124t78 90.5 t116 55.5t142.5 19q67 0 123.5 -13t102 -35t80.5 -50.5t61 -59.5l-154 -122q-14 14 -33.5 29.5t-45.5 28.5t-59 21.5t-75 8.5q-68 0 -107.5 -25t-39.5 -72q0 -30 21 -52.5t57 -41.5t82.5 -36.5l97.5 -37.5q54 -21 106 -47t92.5 -64t65 -92t24.5 -130q0 -75 -28 -132.5 t-79.5 -96t-124 -58t-161.5 -19.5zM582 1180h-215l-289 319h205l193 -162l192 162h205z" />
<glyph unicode="&#x162;" horiz-adv-x="1208" d="M569 -489q-74 0 -123.5 21.5t-80.5 55.5l104 76q12 -15 31.5 -23t48.5 -8q46 0 74 25t28 66q0 38 -31.5 63t-78.5 25q-49 0 -82 -21l-41 51l127 158h-47v1229h-406v205h1024v-205h-405v-1229h-45l-64 -102q60 0 102.5 -14.5t70 -38.5t40 -56t12.5 -68q0 -46 -18 -84.5 t-51.5 -66.5t-81.5 -43.5t-107 -15.5z" />
<glyph unicode="&#x163;" horiz-adv-x="776" d="M399 -489q-74 0 -123.5 21.5t-80.5 55.5l104 76q12 -15 31.5 -23t48.5 -8q46 0 74 25t28 66q0 38 -31.5 63t-78.5 25q-49 0 -82 -21l-41 51l117 148q-76 23 -109 87.5t-33 158.5v626h-162v185h162v329l213 103v-432h248v-185h-248v-571q0 -26 4.5 -48t16 -38t31.5 -24.5 t51 -8.5q76 0 155 49l-26 -198q-41 -19 -87 -31.5t-102 -16.5l-47 -77q60 0 102.5 -14.5t70 -38.5t40 -56t12.5 -68q0 -46 -18 -84.5t-51.5 -66.5t-81.5 -43.5t-107 -15.5z" />
<glyph unicode="&#x164;" horiz-adv-x="1208" d="M711 1229v-1229h-213v1229h-406v205h1024v-205h-405zM709 1569h-215l-289 319h205l193 -162l192 162h205z" />
<glyph unicode="&#x165;" horiz-adv-x="909" d="M457 -25q-62 0 -106.5 18.5t-73 52.5t-41.5 82.5t-13 107.5v626h-162v185h162v329l213 103v-432h248v-185h-248v-571q0 -26 4.5 -48t16 -38t31.5 -24.5t51 -8.5q76 0 155 49l-26 -198q-44 -22 -96 -35t-115 -13zM858 1720v-16q0 -151 -50.5 -269.5t-150.5 -216.5l-66 49 q14 28 25 78t19 111t12 129.5t4 134.5h207z" />
<glyph unicode="&#x166;" horiz-adv-x="1188" d="M700 551v-551h-213v551h-247v201h247v477h-395v205h1004v-205h-396v-477h246v-201h-246z" />
<glyph unicode="&#x167;" horiz-adv-x="797" d="M467 -25q-62 0 -106.5 18.5t-73 52.5t-41.5 82.5t-13 107.5v204h-161v185h161v237h-161v185h161v329l213 103v-432h248v-185h-248v-237h248v-185h-248v-149q0 -26 4.5 -48t16 -38t31.5 -24.5t51 -8.5q76 0 156 49l-27 -198q-43 -22 -95.5 -35t-115.5 -13z" />
<glyph unicode="&#x168;" horiz-adv-x="1427" d="M713 -25q-111 0 -209.5 29t-171.5 95.5t-115.5 175t-42.5 268.5v891h213v-891q0 -108 25 -178t68.5 -111t103.5 -57.5t129 -16.5t128.5 16.5t104 57.5t69.5 111t25 178v891h213v-891q0 -158 -41 -266.5t-113.5 -175.5t-171.5 -96.5t-214 -29.5zM874 1591 q-54 0 -99.5 15.5t-85.5 33.5l-77 33.5t-76 15.5q-38 0 -65.5 -21.5t-30.5 -68.5h-104q0 61 11.5 110.5t37.5 84.5t66.5 53.5t99.5 18.5q54 0 99.5 -15.5t85.5 -34t77 -34t76 -15.5q38 0 65.5 22t30.5 68h104q0 -61 -11.5 -110.5t-37.5 -84t-67 -53t-99 -18.5z" />
<glyph unicode="&#x169;" d="M791 0v100q-51 -65 -117.5 -95t-153.5 -30q-82 0 -151 23.5t-119.5 77t-78.5 138.5t-28 208v625h213v-625q0 -66 16 -112.5t44 -76.5t66 -43.5t83 -13.5q48 0 89 12.5t71.5 41t48 74.5t17.5 114v629h213v-1047h-213zM731 1202q-54 0 -99.5 15.5t-85.5 33.5l-77 33.5 t-76 15.5q-38 0 -65.5 -21.5t-30.5 -68.5h-104q0 61 11.5 110.5t37.5 84.5t66.5 53.5t99.5 18.5q54 0 99.5 -15.5t85.5 -34t77 -34t76 -15.5q38 0 65.5 22t30.5 68h104q0 -61 -11.5 -110.5t-37.5 -84t-67 -53t-99 -18.5z" />
<glyph unicode="&#x16a;" horiz-adv-x="1427" d="M713 -25q-111 0 -209.5 29t-171.5 95.5t-115.5 175t-42.5 268.5v891h213v-891q0 -108 25 -178t68.5 -111t103.5 -57.5t129 -16.5t128.5 16.5t104 57.5t69.5 111t25 178v891h213v-891q0 -158 -41 -266.5t-113.5 -175.5t-171.5 -96.5t-214 -29.5zM375 1612v176h676v-176 h-676z" />
<glyph unicode="&#x16b;" d="M791 0v100q-51 -65 -117.5 -95t-153.5 -30q-82 0 -151 23.5t-119.5 77t-78.5 138.5t-28 208v625h213v-625q0 -66 16 -112.5t44 -76.5t66 -43.5t83 -13.5q48 0 89 12.5t71.5 41t48 74.5t17.5 114v629h213v-1047h-213zM232 1223v176h676v-176h-676z" />
<glyph unicode="&#x16c;" horiz-adv-x="1427" d="M713 -25q-111 0 -209.5 29t-171.5 95.5t-115.5 175t-42.5 268.5v891h213v-891q0 -108 25 -178t68.5 -111t103.5 -57.5t129 -16.5t128.5 16.5t104 57.5t69.5 111t25 178v891h213v-891q0 -158 -41 -266.5t-113.5 -175.5t-171.5 -96.5t-214 -29.5zM713 1569 q-99 0 -170.5 27.5t-118 74t-68.5 108t-22 130.5h180q0 -36 13.5 -66.5t39 -53t62.5 -35.5t84 -13t84 13t63 35.5t39.5 53t13.5 66.5h181q0 -69 -22.5 -131t-69.5 -108.5t-119 -73.5t-170 -27z" />
<glyph unicode="&#x16d;" d="M791 0v100q-51 -65 -117.5 -95t-153.5 -30q-82 0 -151 23.5t-119.5 77t-78.5 138.5t-28 208v625h213v-625q0 -66 16 -112.5t44 -76.5t66 -43.5t83 -13.5q48 0 89 12.5t71.5 41t48 74.5t17.5 114v629h213v-1047h-213zM570 1180q-99 0 -170.5 27.5t-118 74t-68.5 108 t-22 130.5h180q0 -36 13.5 -66.5t39 -53t62.5 -35.5t84 -13t84 13t63 35.5t39.5 53t13.5 66.5h181q0 -69 -22.5 -131t-69.5 -108.5t-119 -73.5t-170 -27z" />
<glyph unicode="&#x16e;" horiz-adv-x="1427" d="M713 -25q-111 0 -209.5 29t-171.5 95.5t-115.5 175t-42.5 268.5v891h213v-891q0 -108 25 -178t68.5 -111t103.5 -57.5t129 -16.5t128.5 16.5t104 57.5t69.5 111t25 178v891h213v-891q0 -158 -41 -266.5t-113.5 -175.5t-171.5 -96.5t-214 -29.5zM713 1632q38 0 65 27.5 t27 68.5q0 42 -27 69.5t-65 27.5q-39 0 -66 -27.5t-27 -69.5t27 -69t66 -27zM713 1479q-52 0 -97.5 19.5t-80 53.5t-54.5 79.5t-20 96.5q0 52 20 97t54.5 78.5t80 53t97.5 19.5q51 0 97 -19.5t80.5 -53t54.5 -78.5t20 -97q0 -51 -20 -96.5t-54.5 -79.5t-80.5 -53.5 t-97 -19.5z" />
<glyph unicode="&#x16f;" d="M791 0v100q-51 -65 -117.5 -95t-153.5 -30q-82 0 -151 23.5t-119.5 77t-78.5 138.5t-28 208v625h213v-625q0 -66 16 -112.5t44 -76.5t66 -43.5t83 -13.5q48 0 89 12.5t71.5 41t48 74.5t17.5 114v629h213v-1047h-213zM570 1243q38 0 65 27.5t27 68.5q0 42 -27 69.5 t-65 27.5q-39 0 -66 -27.5t-27 -69.5t27 -69t66 -27zM570 1090q-52 0 -97.5 19.5t-80 53.5t-54.5 79.5t-20 96.5q0 52 20 97t54.5 78.5t80 53t97.5 19.5q51 0 97 -19.5t80.5 -53t54.5 -78.5t20 -97q0 -51 -20 -96.5t-54.5 -79.5t-80.5 -53.5t-97 -19.5z" />
<glyph unicode="&#x170;" horiz-adv-x="1427" d="M713 -25q-111 0 -209.5 29t-171.5 95.5t-115.5 175t-42.5 268.5v891h213v-891q0 -108 25 -178t68.5 -111t103.5 -57.5t129 -16.5t128.5 16.5t104 57.5t69.5 111t25 178v891h213v-891q0 -158 -41 -266.5t-113.5 -175.5t-171.5 -96.5t-214 -29.5zM539 1569h-218l291 319 h291zM969 1569h-217l290 319h291z" />
<glyph unicode="&#x171;" d="M791 0v100q-51 -65 -117.5 -95t-153.5 -30q-82 0 -151 23.5t-119.5 77t-78.5 138.5t-28 208v625h213v-625q0 -66 16 -112.5t44 -76.5t66 -43.5t83 -13.5q48 0 89 12.5t71.5 41t48 74.5t17.5 114v629h213v-1047h-213zM396 1180h-218l291 319h291zM826 1180h-217l290 319 h291z" />
<glyph unicode="&#x172;" horiz-adv-x="1427" d="M768 -489q-55 0 -100.5 14t-78.5 41t-51 66t-18 89q0 81 46.5 145t129.5 109q-108 3 -203 33t-166 97t-112 174t-41 264v891h213v-891q0 -108 25 -178t68.5 -111t103.5 -57.5t129 -16.5t128.5 16.5t104 57.5t69.5 111t25 178v891h213v-891q0 -121 -23 -209.5t-64.5 -152 t-98.5 -105.5t-125 -70q-127 -51 -186.5 -120t-59.5 -146q0 -53 29.5 -80t73.5 -27q29 0 50 12t34 27l104 -75q-31 -35 -84 -60.5t-135 -25.5z" />
<glyph unicode="&#x173;" d="M811 -489q-55 0 -100.5 14t-78.5 41t-51 66t-18 89q0 91 59.5 162.5t168.5 116.5v100q-51 -65 -117.5 -95t-153.5 -30q-82 0 -151 23.5t-119.5 77t-78.5 138.5t-28 208v625h213v-625q0 -66 16 -112.5t44 -76.5t66 -43.5t83 -13.5q48 0 89 12.5t71.5 41t48 74.5t17.5 114 v629h213v-1047q-72 -21 -122 -50.5t-82 -64t-46.5 -72t-14.5 -73.5q0 -53 29.5 -80t73.5 -27q29 0 50 12t34 27l104 -75q-31 -35 -84 -60.5t-135 -25.5z" />
<glyph unicode="&#x174;" horiz-adv-x="1745" d="M1653 1434l-310 -1434h-192l-248 930q-15 57 -23.5 92.5t-11.5 62.5q-3 -27 -11 -62.5t-23 -92.5l-242 -930h-193l-307 1434h219l178 -883l20.5 -100t10.5 -66q3 28 12.5 65.5l24.5 100.5l225 883h179l231 -881q17 -62 25.5 -99t11.5 -65q3 28 9.5 66t18.5 98l181 881 h215zM1065 1569l-192 161l-193 -161h-205l291 319h215l289 -319h-205z" />
<glyph unicode="&#x175;" horiz-adv-x="1487" d="M1137 0h-189l-174 608l-10.5 37t-10 36.5t-8 32.5t-4.5 25q-2 -10 -4.5 -25.5t-6.5 -33.5t-9 -37l-10 -37l-172 -606h-189l-278 1047h209l147 -652q8 -34 12.5 -59.5l8.5 -46.5q3 21 8.5 48t13.5 58l174 652h197l174 -652q8 -31 13.5 -58t8.5 -48q3 21 8 46.5t13 59.5 l147 652h209zM936 1180l-192 161l-193 -161h-205l291 319h215l289 -319h-205z" />
<glyph unicode="&#x176;" horiz-adv-x="1364" d="M575 0v561l-503 873h243l367 -656l367 656h243l-504 -871v-563h-213zM874 1569l-192 161l-193 -161h-205l291 319h215l289 -319h-205z" />
<glyph unicode="&#x177;" horiz-adv-x="1102" d="M498 -397h-217l161 415l-391 1029h211l258 -685q11 -29 17 -48t12 -44q6 25 12 44t17 48l260 685h213zM741 1180l-192 161l-193 -161h-205l291 319h215l289 -319h-205z" />
<glyph unicode="&#x178;" horiz-adv-x="1364" d="M575 0v561l-503 873h243l367 -656l367 656h243l-504 -871v-563h-213zM497 1599q-27 0 -50.5 10t-41 27.5t-27.5 41t-10 50.5t10 50.5t27.5 41t41 27.5t50.5 10t50.5 -10t41 -27.5t27.5 -41t10 -50.5t-10 -50.5t-27.5 -41t-41 -27.5t-50.5 -10zM866 1599q-27 0 -50.5 10 t-41 27.5t-27.5 41t-10 50.5t10 50.5t27.5 41t41 27.5t50.5 10t50.5 -10t41 -27.5t27.5 -41t10 -50.5t-10 -50.5t-27.5 -41t-41 -27.5t-50.5 -10z" />
<glyph unicode="&#x179;" horiz-adv-x="1356" d="M113 0v172l827 1057h-780v205h1063v-172l-830 -1057h830v-205h-1110zM693 1569h-217l290 319h291z" />
<glyph unicode="&#x17a;" horiz-adv-x="1047" d="M113 0v174l555 684h-514v189h770v-168l-555 -691h553v-188h-809zM488 1180h-217l290 319h291z" />
<glyph unicode="&#x17b;" horiz-adv-x="1356" d="M113 0v172l827 1057h-780v205h1063v-172l-830 -1057h830v-205h-1110zM693 1599q-27 0 -50.5 10t-41 27.5t-27.5 41t-10 50.5t10 50.5t27.5 41t41 27.5t50.5 10t50.5 -10t41 -27.5t27.5 -41t10 -50.5t-10 -50.5t-27.5 -41t-41 -27.5t-50.5 -10z" />
<glyph unicode="&#x17c;" horiz-adv-x="1047" d="M113 0v174l555 684h-514v189h770v-168l-555 -691h553v-188h-809zM529 1210q-27 0 -50.5 10t-41 27.5t-27.5 41t-10 50.5t10 50.5t27.5 41t41 27.5t50.5 10t50.5 -10t41 -27.5t27.5 -41t10 -50.5t-10 -50.5t-27.5 -41t-41 -27.5t-50.5 -10z" />
<glyph unicode="&#x17d;" horiz-adv-x="1356" d="M113 0v172l827 1057h-780v205h1063v-172l-830 -1057h830v-205h-1110zM799 1569h-215l-289 319h205l193 -162l192 162h205z" />
<glyph unicode="&#x17e;" horiz-adv-x="1047" d="M113 0v174l555 684h-514v189h770v-168l-555 -691h553v-188h-809zM635 1180h-215l-289 319h205l193 -162l192 162h205z" />
<glyph unicode="&#x17f;" horiz-adv-x="623" d="M164 0v1214q0 72 20.5 119.5t54.5 75t77 38.5t87 11q62 0 112.5 -13t96.5 -36v-176q-48 20 -82.5 28.5t-66.5 8.5q-26 0 -43 -7t-26.5 -20t-13 -30t-3.5 -37v-1176h-213z" />
<glyph unicode="&#x192;" horiz-adv-x="748" d="M-35 -330q81 18 136.5 41.5t90.5 57t50.5 77.5t15.5 103v913h-156v185h156v167q0 72 21 119.5t54.5 75t76.5 38.5t88 11q62 0 112 -13t97 -36v-172q-48 17 -83 25t-67 8q-26 0 -43 -7t-26.5 -20t-13 -30t-3.5 -37v-129h236v-185h-236v-874q0 -46 -4 -91.5t-14.5 -88.5 t-29.5 -81.5t-50 -70.5q-36 -38 -74 -64t-76 -44t-75.5 -29t-71.5 -19z" />
<glyph unicode="&#x1cd;" horiz-adv-x="1425" d="M1118 0l-114 330h-580l-117 -330h-221l518 1434h219l516 -1434h-221zM764 1006l-26.5 79t-22.5 82q-10 -37 -23.5 -81.5t-25.5 -79.5l-177 -488h449zM819 1569h-215l-289 319h205l193 -162l192 162h205z" />
<glyph unicode="&#x1ce;" horiz-adv-x="1090" d="M956 0h-204v90q-20 -21 -48 -41.5t-63.5 -37t-79.5 -26.5t-96 -10q-80 0 -148 22t-118 66.5t-78.5 110t-28.5 152.5q0 90 34 155.5t90 108t128.5 62.5t149.5 20q72 0 138.5 -15.5t119.5 -46.5v58q0 59 -13.5 100t-41 66.5t-69.5 37t-100 11.5q-98 0 -169.5 -26 t-129.5 -69l-63 175q32 22 73 41.5t90 34.5t106 23.5t122 8.5q44 0 91 -5t91.5 -19.5t84 -41.5t69 -70.5t46.5 -106.5t17 -150v-678zM504 164q81 0 143.5 33t104.5 79v160q-44 23 -103 37t-121 14q-48 0 -90 -9t-73.5 -28.5t-49.5 -50t-18 -73.5q0 -75 52.5 -118.5 t154.5 -43.5zM663 1180h-215l-289 319h205l193 -162l192 162h205z" />
<glyph unicode="&#x1cf;" horiz-adv-x="602" d="M195 0v1434h213v-1434h-213zM408 1569h-215l-289 319h205l193 -162l192 162h205z" />
<glyph unicode="&#x1d0;" horiz-adv-x="524" d="M156 0v1047h213v-1047h-213zM370 1180h-215l-289 319h205l193 -162l192 162h205z" />
<glyph unicode="&#x1d1;" horiz-adv-x="1516" d="M758 -25q-115 0 -206 30.5t-160.5 83t-118.5 124t-80 154t-45.5 172t-14.5 178.5q0 88 14.5 177.5t45.5 172t80 154t118.5 124t160.5 83t206 30.5t206 -30.5t160.5 -83t118.5 -124t80 -154t45 -172t14 -177.5q0 -89 -14 -178.5t-45 -172t-80 -154t-118.5 -124t-160.5 -83 t-206 -30.5zM758 180q75 0 134 23.5t103.5 63.5t76 93.5t51.5 113t29 122t9 121.5q0 62 -9 126.5t-29 124t-51.5 111.5t-76 90.5t-103.5 61t-134 22.5t-134 -23.5t-104 -63.5t-76.5 -93.5t-51.5 -113t-29 -122t-9 -120.5q0 -94 21 -189.5t69 -173t125 -126t189 -48.5z M866 1569h-215l-289 319h205l193 -162l192 162h205z" />
<glyph unicode="&#x1d2;" horiz-adv-x="1161" d="M580 -25q-110 0 -198.5 37t-150.5 107.5t-95.5 172t-33.5 230.5t33.5 231t95.5 172.5t150.5 108t198.5 37.5q109 0 198 -37.5t151 -108t96 -172.5t34 -231t-34 -230.5t-96 -172t-151 -107.5t-198 -37zM580 176q61 0 110.5 24t84 68.5t53 108.5t18.5 145t-18.5 145.5 t-53 109.5t-84 69t-110.5 24t-110 -24t-83.5 -69t-53 -109.5t-18.5 -145.5t18.5 -145t53 -108.5t83.5 -68.5t110 -24zM686 1180h-215l-289 319h205l193 -162l192 162h205z" />
<glyph unicode="&#x1d3;" horiz-adv-x="1427" d="M713 -25q-111 0 -209.5 29t-171.5 95.5t-115.5 175t-42.5 268.5v891h213v-891q0 -108 25 -178t68.5 -111t103.5 -57.5t129 -16.5t128.5 16.5t104 57.5t69.5 111t25 178v891h213v-891q0 -158 -41 -266.5t-113.5 -175.5t-171.5 -96.5t-214 -29.5zM819 1569h-215l-289 319 h205l193 -162l192 162h205z" />
<glyph unicode="&#x1d4;" d="M791 0v100q-51 -65 -117.5 -95t-153.5 -30q-82 0 -151 23.5t-119.5 77t-78.5 138.5t-28 208v625h213v-625q0 -66 16 -112.5t44 -76.5t66 -43.5t83 -13.5q48 0 89 12.5t71.5 41t48 74.5t17.5 114v629h213v-1047h-213zM676 1180h-215l-289 319h205l193 -162l192 162h205z " />
<glyph unicode="&#x1fc;" horiz-adv-x="1737" d="M833 0v330h-442l-186 -330h-230l832 1434h801v-201h-562v-393h322v-201h-322v-438h607v-201h-820zM833 520v598q-8 -18 -18.5 -39l-21.5 -42.5l-22.5 -42l-21.5 -38.5l-247 -436h331zM1123 1569h-217l290 319h291z" />
<glyph unicode="&#x1fd;" horiz-adv-x="1757" d="M1214 -25q-118 0 -210.5 43t-155.5 123q-48 -49 -99 -81t-101 -51t-97 -26.5t-86 -7.5q-80 0 -148 22t-118 66.5t-78.5 110t-28.5 152.5q0 90 34 155.5t90 108t128.5 62.5t149.5 20q72 0 138.5 -15.5t119.5 -46.5v58q0 59 -13.5 100t-41 66.5t-69.5 37t-100 11.5 q-98 0 -169.5 -26t-129.5 -69l-63 175q32 22 73 41.5t90 34.5t106 23.5t122 8.5q41 0 85.5 -5t87 -19.5t80.5 -41t67 -69.5q63 66 147.5 100.5t189.5 34.5q93 0 175 -29.5t143.5 -90t97 -152.5t35.5 -217q0 -34 -1.5 -72t-6.5 -66h-703q1 -65 23.5 -116.5t58.5 -88t83 -56 t98 -19.5q65 0 120.5 27t96.5 79l139 -143q-57 -68 -146.5 -110t-212.5 -42zM504 164q80 0 143 33t105 79v160q-44 23 -104 37t-120 14q-48 0 -90 -9t-73.5 -28.5t-49.5 -50t-18 -73.5q0 -75 52.5 -118.5t154.5 -43.5zM1214 883q-50 0 -95.5 -14t-80.5 -45t-57.5 -80 t-26.5 -119h496q-2 70 -23 119t-54 80t-75 45t-84 14zM887 1180h-217l290 319h291z" />
<glyph unicode="&#x1fe;" horiz-adv-x="1495" d="M133 -25l146 213q-42 54 -71.5 117t-48 131t-27.5 139t-9 142q0 88 14.5 177.5t45.5 172t80 154t118.5 124t160.5 83t206 30.5q103 0 186 -24.5t149 -67.5l64 92h215l-148 -215q42 -54 71.5 -116.5t49 -130.5t28.5 -138.5t9 -140.5q0 -89 -14.5 -178.5t-45.5 -172 t-79.5 -154t-118 -124t-160.5 -83t-206 -30.5q-104 0 -187 24.5t-149 68.5l-64 -93h-215zM344 717q0 -85 17 -170.5t55 -159.5l547 801q-44 31 -97 48t-118 17q-75 0 -134 -23.5t-104 -63.5t-76.5 -93.5t-51.5 -113t-29 -122t-9 -120.5zM748 180q75 0 134 23.5t103.5 63.5 t76 93.5t51.5 113t29 122t9 121.5q0 83 -17 169t-55 158l-547 -798q44 -31 96.5 -48.5t119.5 -17.5zM709 1569h-217l290 319h291z" />
<glyph unicode="&#x1ff;" horiz-adv-x="1161" d="M102 -25l113 164q-54 71 -83.5 166.5t-29.5 216.5q0 129 33.5 231t95.5 172.5t150.5 108t198.5 37.5q139 0 243 -59l41 59h195l-115 -164q56 -71 85.5 -167.5t29.5 -217.5q0 -129 -34 -230.5t-96 -172t-151 -107.5t-198 -37q-72 0 -132.5 15.5t-111.5 44.5l-41 -60h-193z M580 176q61 0 110.5 24t84 68.5t53 108.5t18.5 145q0 56 -9 104.5t-28 88.5l-352 -508q52 -31 123 -31zM315 522q0 -111 33 -190l354 508q-26 15 -57 22.5t-65 7.5q-61 0 -110 -24t-83.5 -69t-53 -109.5t-18.5 -145.5zM539 1180h-217l290 319h291z" />
<glyph unicode="&#x218;" horiz-adv-x="1237" d="M854 1108q-13 31 -36 57.5t-56 46t-75.5 30.5t-94.5 11q-103 0 -161 -45t-58 -127q0 -51 32 -86.5t84 -62.5t118.5 -49.5t136 -49t136 -61t118.5 -84t84 -119t32 -166.5q0 -103 -37.5 -182.5t-103.5 -134t-155.5 -83t-192.5 -28.5q-96 0 -179.5 24.5t-151 70t-116.5 110 t-76 144.5l201 73q22 -48 54.5 -88t74.5 -68.5t92.5 -44.5t108.5 -16t106 14t82 42t53 69.5t19 95.5q0 64 -32 107.5t-84 75.5t-118.5 56l-136 49t-136 56t-118.5 76t-84 108t-32 154q0 76 30.5 144t88.5 119.5t143 81.5t194 30q91 0 165 -21.5t129.5 -59.5t92.5 -90 t56 -113zM524 -496q12 11 26.5 26t28.5 33.5t26.5 40t21.5 44.5q-28 0 -52 9.5t-42 26t-28.5 39.5t-10.5 50q0 31 10.5 56t28.5 42.5t42 27t50 9.5q28 0 53 -10t43.5 -28.5t29.5 -46t11 -63.5q0 -83 -43.5 -159.5t-124.5 -141.5z" />
<glyph unicode="&#x219;" horiz-adv-x="973" d="M477 -25q-62 0 -121 12t-110.5 34t-93.5 53.5t-70 70.5l151 129q16 -15 39 -33.5t53 -34.5t67 -27t81 -11q40 0 74 6t58.5 19t38 34.5t13.5 53.5q0 37 -25.5 63.5t-66.5 48t-93 41t-105 41.5q-49 21 -96 46t-83.5 60t-59 83.5t-22.5 117.5q0 70 28.5 124t78 90.5 t116 55.5t142.5 19q67 0 123.5 -13t102 -35t80.5 -50.5t61 -59.5l-154 -122q-14 14 -33.5 29.5t-45.5 28.5t-59 21.5t-75 8.5q-68 0 -107.5 -25t-39.5 -72q0 -30 21 -52.5t57 -41.5t82.5 -36.5l97.5 -37.5q54 -21 106 -47t92.5 -64t65 -92t24.5 -130q0 -75 -28 -132.5 t-79.5 -96t-124 -58t-161.5 -19.5zM372 -496q12 11 26.5 26t28.5 33.5t26.5 40t21.5 44.5q-28 0 -52 9.5t-42 26t-28.5 39.5t-10.5 50q0 31 10.5 56t28.5 42.5t42 27t50 9.5q28 0 53 -10t43.5 -28.5t29.5 -46t11 -63.5q0 -83 -43.5 -159.5t-124.5 -141.5z" />
<glyph unicode="&#x21a;" horiz-adv-x="1208" d="M711 1229v-1229h-213v1229h-406v205h1024v-205h-405zM504 -496q12 11 26.5 26t28.5 33.5t26.5 40t21.5 44.5q-28 0 -52 9.5t-42 26t-28.5 39.5t-10.5 50q0 31 10.5 56t28.5 42.5t42 27t50 9.5q28 0 53 -10t43.5 -28.5t29.5 -46t11 -63.5q0 -83 -43.5 -159.5 t-124.5 -141.5z" />
<glyph unicode="&#x21b;" horiz-adv-x="776" d="M457 -25q-62 0 -106.5 18.5t-73 52.5t-41.5 82.5t-13 107.5v626h-162v185h162v329l213 103v-432h248v-185h-248v-571q0 -26 4.5 -48t16 -38t31.5 -24.5t51 -8.5q76 0 155 49l-26 -198q-44 -22 -96 -35t-115 -13zM332 -496q12 11 26.5 26t28.5 33.5t26.5 40t21.5 44.5 q-28 0 -52 9.5t-42 26t-28.5 39.5t-10.5 50q0 31 10.5 56t28.5 42.5t42 27t50 9.5q28 0 53 -10t43.5 -28.5t29.5 -46t11 -63.5q0 -83 -43.5 -159.5t-124.5 -141.5z" />
<glyph unicode="&#x237;" horiz-adv-x="524" d="M-129 -281q81 18 135.5 39.5t87.5 51.5t47.5 70.5t14.5 96.5v1070h213v-998q0 -46 -4 -91.5t-15 -88.5t-30 -81.5t-50 -70.5q-36 -38 -74 -64t-76 -43.5t-75 -29t-72 -18.5z" />
<glyph unicode="&#xf6be;" horiz-adv-x="524" d="M-129 -281q81 18 135.5 39.5t87.5 51.5t47.5 70.5t14.5 96.5v1070h213v-998q0 -46 -4 -91.5t-15 -88.5t-30 -81.5t-50 -70.5q-36 -38 -74 -64t-76 -43.5t-75 -29t-72 -18.5z" />
<glyph unicode="&#x2c6;" horiz-adv-x="819" d="M602 1180l-192 161l-193 -161h-205l291 319h215l289 -319h-205z" />
<glyph unicode="&#x2c7;" horiz-adv-x="819" d="M516 1180h-215l-289 319h205l193 -162l192 162h205z" />
<glyph unicode="&#x2c9;" horiz-adv-x="819" d="M72 1223v176h676v-176h-676z" />
<glyph unicode="&#x2d8;" horiz-adv-x="819" d="M410 1180q-99 0 -170.5 27.5t-118 74t-68.5 108t-22 130.5h180q0 -36 13.5 -66.5t39 -53t62.5 -35.5t84 -13t84 13t63 35.5t39.5 53t13.5 66.5h181q0 -69 -22.5 -131t-69.5 -108.5t-119 -73.5t-170 -27z" />
<glyph unicode="&#x2d9;" horiz-adv-x="819" d="M410 1210q-27 0 -50.5 10t-41 27.5t-27.5 41t-10 50.5t10 50.5t27.5 41t41 27.5t50.5 10t50.5 -10t41 -27.5t27.5 -41t10 -50.5t-10 -50.5t-27.5 -41t-41 -27.5t-50.5 -10z" />
<glyph unicode="&#x2da;" horiz-adv-x="819" d="M410 1243q38 0 65 27.5t27 68.5q0 42 -27 69.5t-65 27.5q-39 0 -66 -27.5t-27 -69.5t27 -69t66 -27zM410 1090q-52 0 -97.5 19.5t-80 53.5t-54.5 79.5t-20 96.5q0 52 20 97t54.5 78.5t80 53t97.5 19.5q51 0 97 -19.5t80.5 -53t54.5 -78.5t20 -97q0 -51 -20 -96.5 t-54.5 -79.5t-80.5 -53.5t-97 -19.5z" />
<glyph unicode="&#x2db;" horiz-adv-x="819" d="M424 -489q-56 0 -101.5 14t-78 41t-50.5 66t-18 89q0 103 75 179.5t206 119.5h153q-69 -28 -118 -62t-80 -70.5t-45.5 -74t-14.5 -73.5q0 -53 29.5 -80t73.5 -27q29 0 50 12t34 27l104 -75q-31 -35 -84.5 -60.5t-134.5 -25.5z" />
<glyph unicode="&#x2dc;" horiz-adv-x="819" d="M571 1202q-54 0 -99.5 15.5t-85.5 33.5l-77 33.5t-76 15.5q-38 0 -65.5 -21.5t-30.5 -68.5h-104q0 61 11.5 110.5t37.5 84.5t66.5 53.5t99.5 18.5q54 0 99.5 -15.5t85.5 -34t77 -34t76 -15.5q38 0 65.5 22t30.5 68h104q0 -61 -11.5 -110.5t-37.5 -84t-67 -53t-99 -18.5z " />
<glyph unicode="&#x2dd;" horiz-adv-x="819" d="M236 1180h-218l291 319h291zM666 1180h-217l290 319h291z" />
<glyph unicode="&#x3bc;" d="M791 0v100q-51 -65 -115 -95t-135 -30q-122 0 -185 84v-368l-213 -101v1457h213v-625q0 -72 15 -119.5t42.5 -75.5t66 -39.5t85.5 -11.5q48 0 89 12.5t71.5 41t48 74.5t17.5 114v629h213v-1047h-213z" />
<glyph unicode="&#x3c0;" horiz-adv-x="1350" d="M1040 -25q-62 0 -106.5 18.5t-72.5 52.5t-41 82.5t-13 107.5v589h-285v-77q0 -138 -9.5 -260t-39.5 -223.5t-85 -180t-146 -129.5l-181 141q49 30 95.5 69t82.5 102.5t58 159t22 239.5v159h-190v222h1135v-222h-244v-538q0 -26 4.5 -48t16 -38t31 -24.5t50.5 -8.5 q77 0 156 49l-31 -194q-43 -22 -93.5 -35t-113.5 -13z" />
<glyph unicode="&#x1e80;" horiz-adv-x="1745" d="M1653 1434l-310 -1434h-192l-248 930q-15 57 -23.5 92.5t-11.5 62.5q-3 -27 -11 -62.5t-23 -92.5l-242 -930h-193l-307 1434h219l178 -883l20.5 -100t10.5 -66q3 28 12.5 65.5l24.5 100.5l225 883h179l231 -881q17 -62 25.5 -99t11.5 -65q3 28 9.5 66t18.5 98l181 881 h215zM914 1569l-365 319h291l291 -319h-217z" />
<glyph unicode="&#x1e81;" horiz-adv-x="1487" d="M1137 0h-189l-174 608l-10.5 37t-10 36.5t-8 32.5t-4.5 25q-2 -10 -4.5 -25.5t-6.5 -33.5t-9 -37l-10 -37l-172 -606h-189l-278 1047h209l147 -652q8 -34 12.5 -59.5l8.5 -46.5q3 21 8.5 48t13.5 58l174 652h197l174 -652q8 -31 13.5 -58t8.5 -48q3 21 8 46.5t13 59.5 l147 652h209zM785 1180l-365 319h291l291 -319h-217z" />
<glyph unicode="&#x1e82;" horiz-adv-x="1745" d="M1653 1434l-310 -1434h-192l-248 930q-15 57 -23.5 92.5t-11.5 62.5q-3 -27 -11 -62.5t-23 -92.5l-242 -930h-193l-307 1434h219l178 -883l20.5 -100t10.5 -66q3 28 12.5 65.5l24.5 100.5l225 883h179l231 -881q17 -62 25.5 -99t11.5 -65q3 28 9.5 66t18.5 98l181 881 h215zM832 1569h-217l290 319h291z" />
<glyph unicode="&#x1e83;" horiz-adv-x="1487" d="M1137 0h-189l-174 608l-10.5 37t-10 36.5t-8 32.5t-4.5 25q-2 -10 -4.5 -25.5t-6.5 -33.5t-9 -37l-10 -37l-172 -606h-189l-278 1047h209l147 -652q8 -34 12.5 -59.5l8.5 -46.5q3 21 8.5 48t13.5 58l174 652h197l174 -652q8 -31 13.5 -58t8.5 -48q3 21 8 46.5t13 59.5 l147 652h209zM703 1180h-217l290 319h291z" />
<glyph unicode="&#x1e84;" horiz-adv-x="1745" d="M1653 1434l-310 -1434h-192l-248 930q-15 57 -23.5 92.5t-11.5 62.5q-3 -27 -11 -62.5t-23 -92.5l-242 -930h-193l-307 1434h219l178 -883l20.5 -100t10.5 -66q3 28 12.5 65.5l24.5 100.5l225 883h179l231 -881q17 -62 25.5 -99t11.5 -65q3 28 9.5 66t18.5 98l181 881 h215zM688 1599q-27 0 -50.5 10t-41 27.5t-27.5 41t-10 50.5t10 50.5t27.5 41t41 27.5t50.5 10t50.5 -10t41 -27.5t27.5 -41t10 -50.5t-10 -50.5t-27.5 -41t-41 -27.5t-50.5 -10zM1057 1599q-27 0 -50.5 10t-41 27.5t-27.5 41t-10 50.5t10 50.5t27.5 41t41 27.5t50.5 10 t50.5 -10t41 -27.5t27.5 -41t10 -50.5t-10 -50.5t-27.5 -41t-41 -27.5t-50.5 -10z" />
<glyph unicode="&#x1e85;" horiz-adv-x="1487" d="M1137 0h-189l-174 608l-10.5 37t-10 36.5t-8 32.5t-4.5 25q-2 -10 -4.5 -25.5t-6.5 -33.5t-9 -37l-10 -37l-172 -606h-189l-278 1047h209l147 -652q8 -34 12.5 -59.5l8.5 -46.5q3 21 8.5 48t13.5 58l174 652h197l174 -652q8 -31 13.5 -58t8.5 -48q3 21 8 46.5t13 59.5 l147 652h209zM559 1210q-27 0 -50.5 10t-41 27.5t-27.5 41t-10 50.5t10 50.5t27.5 41t41 27.5t50.5 10t50.5 -10t41 -27.5t27.5 -41t10 -50.5t-10 -50.5t-27.5 -41t-41 -27.5t-50.5 -10zM928 1210q-27 0 -50.5 10t-41 27.5t-27.5 41t-10 50.5t10 50.5t27.5 41t41 27.5 t50.5 10t50.5 -10t41 -27.5t27.5 -41t10 -50.5t-10 -50.5t-27.5 -41t-41 -27.5t-50.5 -10z" />
<glyph unicode="&#x1ef2;" horiz-adv-x="1364" d="M575 0v561l-503 873h243l367 -656l367 656h243l-504 -871v-563h-213zM682 1569l-365 319h291l291 -319h-217z" />
<glyph unicode="&#x1ef3;" horiz-adv-x="1102" d="M498 -397h-217l161 415l-391 1029h211l258 -685q11 -29 17 -48t12 -44q6 25 12 44t17 48l260 685h213zM590 1180l-365 319h291l291 -319h-217z" />
<glyph unicode="&#x2000;" horiz-adv-x="988" />
<glyph unicode="&#x2001;" horiz-adv-x="1976" />
<glyph unicode="&#x2002;" horiz-adv-x="988" />
<glyph unicode="&#x2003;" horiz-adv-x="1976" />
<glyph unicode="&#x2004;" horiz-adv-x="658" />
<glyph unicode="&#x2005;" horiz-adv-x="494" />
<glyph unicode="&#x2006;" horiz-adv-x="329" />
<glyph unicode="&#x2007;" horiz-adv-x="329" />
<glyph unicode="&#x2008;" horiz-adv-x="247" />
<glyph unicode="&#x2009;" horiz-adv-x="395" />
<glyph unicode="&#x200a;" horiz-adv-x="109" />
<glyph unicode="&#x2010;" horiz-adv-x="809" d="M154 506v205h501v-205h-501z" />
<glyph unicode="&#x2011;" horiz-adv-x="809" d="M154 506v205h501v-205h-501z" />
<glyph unicode="&#x2012;" horiz-adv-x="809" d="M154 506v205h501v-205h-501z" />
<glyph unicode="&#x2013;" horiz-adv-x="1014" d="M102 496v184h809v-184h-809z" />
<glyph unicode="&#x2014;" horiz-adv-x="1178" d="M-10 496v184h1198v-184h-1198z" />
<glyph unicode="&#x2015;" horiz-adv-x="1178" d="M-10 496v184h1198v-184h-1198z" />
<glyph unicode="&#x2018;" horiz-adv-x="457" d="M233 895q-32 0 -61.5 11.5t-51.5 34.5t-35 58t-13 82q0 59 17.5 114.5t47.5 104.5t70.5 89t85.5 69l80 -51q-14 -12 -33.5 -34.5t-38.5 -51t-34 -61t-19 -66.5q27 -2 51.5 -13t43.5 -30t30.5 -44t11.5 -56q0 -36 -12.5 -64.5t-33.5 -49t-48.5 -31.5t-57.5 -11z" />
<glyph unicode="&#x2019;" horiz-adv-x="457" d="M84 946q14 12 33.5 34.5t38.5 51t33.5 61t19.5 66.5q-27 2 -52 13.5t-43.5 30t-30 44t-11.5 56.5q0 35 12.5 63.5t33 49t48 31.5t57.5 11q32 0 61.5 -11.5t52 -34.5t35.5 -58t13 -82q0 -59 -17.5 -115t-47.5 -104.5t-70.5 -89t-85.5 -68.5z" />
<glyph unicode="&#x201a;" horiz-adv-x="457" d="M84 -238q14 12 33.5 34.5t38.5 51t33.5 61t19.5 66.5q-27 3 -52 14t-43.5 30t-30 44t-11.5 56q0 35 12.5 63.5t33 49t48 31.5t57.5 11q32 0 61.5 -11.5t52 -34.5t35.5 -58t13 -82q0 -59 -17.5 -115t-47.5 -104.5t-70.5 -89t-85.5 -68.5z" />
<glyph unicode="&#x201b;" horiz-adv-x="457" d="M293 895q-45 28 -85.5 68.5t-70.5 89t-47.5 104.5t-17.5 115q0 47 13 82t35 58t51.5 34.5t61.5 11.5q30 0 57.5 -11t48.5 -31.5t33.5 -49t12.5 -63.5q0 -31 -11.5 -56.5t-30.5 -44t-43.5 -30t-51.5 -13.5q4 -34 19 -66.5t34 -61t38.5 -51t33.5 -34.5z" />
<glyph unicode="&#x201c;" horiz-adv-x="913" d="M233 895q-32 0 -61.5 11.5t-51.5 34.5t-35 58t-13 82q0 59 17.5 114.5t47.5 104.5t70.5 89t85.5 69l80 -51q-14 -12 -33.5 -34.5t-38.5 -51t-34 -61t-19 -66.5q27 -2 51.5 -13t43.5 -30t30.5 -44t11.5 -56q0 -36 -12.5 -64.5t-33.5 -49t-48.5 -31.5t-57.5 -11zM690 895 q-32 0 -61.5 11.5t-52 34.5t-35.5 58t-13 82q0 59 17.5 114.5t48 104.5t71 89t85.5 69l79 -51q-14 -12 -33 -34.5t-38 -51t-34 -61t-19 -66.5q27 -2 51.5 -13t43.5 -30t30.5 -44t11.5 -56q0 -36 -12.5 -64.5t-33.5 -49t-48.5 -31.5t-57.5 -11z" />
<glyph unicode="&#x201d;" horiz-adv-x="913" d="M84 946q14 12 33.5 34.5t38.5 51t33.5 61t19.5 66.5q-27 2 -52 13.5t-43.5 30t-30 44t-11.5 56.5q0 35 12.5 63.5t33 49t48 31.5t57.5 11q32 0 61.5 -11.5t52 -34.5t35.5 -58t13 -82q0 -59 -17.5 -115t-47.5 -104.5t-70.5 -89t-85.5 -68.5zM541 946q14 12 33.5 34.5 t38 51t33.5 61t20 66.5q-27 2 -52 13.5t-44 30t-30.5 44t-11.5 56.5q0 35 12.5 63.5t33.5 49t48.5 31.5t57.5 11q32 0 61.5 -11.5t52 -34.5t35.5 -58t13 -82q0 -59 -17.5 -115t-48 -104.5t-70.5 -89t-85 -68.5z" />
<glyph unicode="&#x201e;" horiz-adv-x="913" d="M84 -238q14 12 33.5 34.5t38.5 51t33.5 61t19.5 66.5q-27 3 -52 14t-43.5 30t-30 44t-11.5 56q0 35 12.5 63.5t33 49t48 31.5t57.5 11q32 0 61.5 -11.5t52 -34.5t35.5 -58t13 -82q0 -59 -17.5 -115t-47.5 -104.5t-70.5 -89t-85.5 -68.5zM541 -238q14 12 33.5 34.5t38 51 t33.5 61t20 66.5q-27 3 -52 14t-44 30t-30.5 44t-11.5 56q0 35 12.5 63.5t33.5 49t48.5 31.5t57.5 11q32 0 61.5 -11.5t52 -34.5t35.5 -58t13 -82q0 -59 -17.5 -115t-48 -104.5t-70.5 -89t-85 -68.5z" />
<glyph unicode="&#x2020;" horiz-adv-x="1147" d="M659 899l21 -211l-64 -977h-81l-68 977l18 211l-239 -33h-113v205h113l237 -35l-16 166v256h213v-256l-18 -166l239 35h113v-205h-113z" />
<glyph unicode="&#x2021;" horiz-adv-x="1147" d="M901 98l-239 35l18 -166v-256h-213v256l16 166l-237 -35h-113v205h113l239 -33l-18 211v207l18 211l-239 -33h-113v205h113l237 -35l-16 166v256h213v-256l-18 -166l239 35h113v-205h-113l-242 33l21 -211v-207l-21 -211l242 33h113v-205h-113z" />
<glyph unicode="&#x2022;" horiz-adv-x="831" d="M414 436q-62 0 -115.5 22t-92.5 60t-61 89t-22 110q0 58 22 109.5t61 90.5t92.5 61.5t115.5 22.5t116 -22.5t93.5 -61.5t62.5 -90.5t23 -109.5q0 -59 -23 -110t-62.5 -89t-93.5 -60t-116 -22z" />
<glyph unicode="&#x2026;" horiz-adv-x="1911" d="M317 -25q-28 0 -52.5 10t-42.5 27.5t-28 41t-10 50.5t10 51t28 42t42.5 28.5t52.5 10.5t53 -10.5t43.5 -28.5t29 -42t10.5 -51t-10.5 -50.5t-29 -41t-43.5 -27.5t-53 -10zM954 -25q-28 0 -52.5 10t-42.5 27.5t-28 41t-10 50.5t10 51t28 42t42.5 28.5t52.5 10.5t53 -10.5 t43.5 -28.5t29 -42t10.5 -51t-10.5 -50.5t-29 -41t-43.5 -27.5t-53 -10zM1591 -25q-28 0 -52.5 10t-42.5 27.5t-28 41t-10 50.5t10 51t28 42t42.5 28.5t52.5 10.5t53 -10.5t43 -28.5t28.5 -42t10.5 -51t-10.5 -50.5t-28.5 -41t-43 -27.5t-53 -10z" />
<glyph unicode="&#x202f;" horiz-adv-x="395" />
<glyph unicode="&#x2030;" horiz-adv-x="2542" d="M428 729q-92 0 -156 33t-104 85t-58 117t-18 130q0 60 17.5 124t57.5 117.5t104 88t157 34.5q92 0 156 -32.5t104 -85t58 -117.5t18 -129q0 -59 -17 -123.5t-56.5 -118t-104 -88.5t-158.5 -35zM428 893q42 0 73 16t51.5 43.5t30 64t9.5 77.5q0 43 -10 80t-30.5 63.5 t-51 41.5t-72.5 15t-73 -16t-51.5 -43t-30 -63.5t-9.5 -77.5q0 -44 10 -81t30.5 -63.5t51 -41.5t72.5 -15zM479 -25h-194l979 1483h194zM1315 -25q-92 0 -156 33t-104 85t-58 117t-18 130q0 60 17.5 124.5t57.5 118t104 88t157 34.5q92 0 156 -33t104 -85t58 -117.5 t18 -129.5q0 -59 -17 -123.5t-56.5 -118t-104 -88.5t-158.5 -35zM1315 139q42 0 73 16t51 43.5t30 64t10 77.5q0 44 -10 81t-30.5 63.5t-51.5 41.5t-72 15q-42 0 -73 -16t-51.5 -43t-30 -63.5t-9.5 -78.5q0 -44 10 -81t30.5 -63.5t51 -41.5t72.5 -15zM2114 -25 q-92 0 -156 33t-104 85t-58 117t-18 130q0 60 17.5 124.5t57.5 118t104 88t157 34.5q92 0 156 -33t103.5 -85t57.5 -117.5t18 -129.5q0 -40 -7.5 -82t-23.5 -82.5t-42 -77t-63.5 -64t-86.5 -43.5t-112 -16zM2114 139q42 0 72.5 16t51 43.5t30 64t9.5 77.5q0 44 -10 81 t-30.5 63.5t-51 41.5t-71.5 15q-42 0 -73 -16t-51.5 -43t-30 -63.5t-9.5 -78.5q0 -44 10 -81t30.5 -63.5t51 -41.5t72.5 -15z" />
<glyph unicode="&#x2032;" horiz-adv-x="451" d="M113 1495h266l-127 -655h-180z" />
<glyph unicode="&#x2033;" horiz-adv-x="860" d="M113 1495h266l-127 -655h-180zM522 1495h266l-126 -655h-181z" />
<glyph unicode="&#x2039;" horiz-adv-x="635" d="M373 0l-312 524l312 523h231l-311 -523l311 -524h-231z" />
<glyph unicode="&#x203a;" horiz-adv-x="635" d="M31 0l311 524l-311 523h231l311 -523l-311 -524h-231z" />
<glyph unicode="&#x2044;" horiz-adv-x="682" d="M-246 -25l979 1483h195l-979 -1483h-195z" />
<glyph unicode="&#x205f;" horiz-adv-x="494" />
<glyph unicode="&#x207f;" horiz-adv-x="940" d="M641 580v503q0 55 -12 93t-33 62t-50 35t-63 11q-37 0 -68.5 -10t-54.5 -33t-36 -61t-13 -93v-507h-188v858h188v-90q37 51 93 80.5t137 29.5q62 0 114.5 -19.5t90.5 -63t59.5 -113.5t21.5 -170v-512h-186z" />
<glyph unicode="&#x20a4;" horiz-adv-x="1206" d="M164 0v213q31 15 55 37.5t43 50.5t32.5 60t22.5 65h-163v180h182q-3 38 -13 71t-22 64h-147v181h75q-8 26 -11 56.5t-3 68.5q0 78 28.5 152t87 131.5t148 92.5t211.5 35q71 0 130 -9.5t111 -27.5t99.5 -45t95.5 -61l-84 -203l-56 47t-72.5 46t-96.5 34.5t-127 13.5 q-68 0 -116 -18t-78.5 -47t-45 -66t-14.5 -75q0 -35 7 -65.5t20 -59.5h405v-181h-333q9 -31 14.5 -64t7.5 -71h311v-180h-329q-37 -118 -131 -221h737v-205h-981z" />
<glyph unicode="&#x20ac;" horiz-adv-x="1290" d="M496 444q15 -57 38.5 -105t58.5 -83.5t81 -55.5t106 -20q79 0 141.5 40t108.5 108l178 -111q-32 -54 -75 -99t-96.5 -76.5t-117.5 -49t-139 -17.5q-120 0 -208 37.5t-149 101t-98.5 149t-56.5 181.5h-188l76 181h90q-2 23 -2 46v46v30.5t2 32.5h-164l76 181h110 q20 97 60 186.5t104 158.5t155 110.5t214 41.5q96 0 187.5 -27t187.5 -96l-84 -202q-26 22 -55.5 43.5t-65.5 38.5t-78 27.5t-92 10.5q-68 0 -119 -23.5t-88.5 -63t-62.5 -92.5t-39 -113h528l-76 -181h-477q-2 -17 -2 -33v-30v-46t2 -46h418l-76 -181h-313z" />
<glyph unicode="&#x2105;" horiz-adv-x="2126" d="M481 557q-90 0 -160 30.5t-119 88.5t-74.5 142t-25.5 190t26.5 189.5t76 141.5t119 88.5t155.5 30.5q78 0 134 -20t95.5 -52.5t64 -73t38.5 -81.5l-178 -60q-7 22 -19 42t-30 36t-41.5 25.5t-53.5 9.5q-48 0 -86 -19t-63.5 -55t-39 -87t-13.5 -115q0 -63 13.5 -114 t38 -86.5t60 -55t80.5 -19.5q68 0 103.5 33t54.5 92l172 -53q-35 -125 -115 -186.5t-213 -61.5zM1628 -25q-90 0 -162 30.5t-123 88t-78.5 141t-27.5 189.5t27.5 189.5t78.5 141.5t123 88.5t162 30.5t163 -30.5t124.5 -88.5t79.5 -141.5t28 -189.5t-28 -189.5t-79.5 -141 t-124.5 -88t-163 -30.5zM1628 150q100 0 154.5 72t54.5 202q0 131 -54.5 203.5t-154.5 72.5q-97 0 -152 -72.5t-55 -203.5q0 -130 55 -202t152 -72zM446 -25l979 1483h195l-979 -1483h-195z" />
<glyph unicode="&#x2113;" horiz-adv-x="952" d="M502 -25q-48 0 -89.5 14t-73 44t-49.5 78.5t-18 117.5v226q-26 -16 -50.5 -27.5l-41.5 -19.5l-67 170q18 7 39.5 17.5l43 22l41.5 23t35 21.5v368q0 122 20.5 204.5t59 132t92.5 70.5t121 21q62 0 116 -19.5t93.5 -58t62.5 -96.5t23 -135q0 -75 -17.5 -139.5t-46.5 -119 t-67 -101t-80 -85.5t-84.5 -72l-79.5 -61v-266q0 -43 7 -69t21 -40.5t33.5 -19t45.5 -4.5q15 0 32.5 4.5t36 14.5t37 24.5t33.5 34.5l60 -139q-24 -30 -56 -55t-69.5 -43t-79 -28t-84.5 -10zM567 1284q-22 0 -37.5 -9.5t-25.5 -36t-14.5 -74t-4.5 -122.5v-254 q81 75 121.5 154t40.5 176q0 76 -18 121t-62 45z" />
<glyph unicode="&#x2116;" horiz-adv-x="2425" d="M1069 0l-620 973l-58 106l6 -106v-973h-213v1434h215l605 -957l59 -110l-6 108v959h213v-1434h-201zM1485 242v159h786v-159h-786zM1876 559q-90 0 -162.5 30.5t-123 88t-78 141t-27.5 189.5t27.5 189.5t78 141.5t123 88.5t162.5 30.5t163 -30.5t124.5 -88.5t79.5 -141.5 t28 -189.5t-28 -189.5t-79.5 -141t-124.5 -88t-163 -30.5zM1876 733q100 0 154.5 72.5t54.5 202.5q0 131 -54.5 203.5t-154.5 72.5q-97 0 -152 -72.5t-55 -203.5q0 -129 55 -202t152 -73z" />
<glyph unicode="&#x2122;" horiz-adv-x="1640" d="M424 1286v-717h-154v717h-229v148h610v-148h-227zM1346 569v516l-19 -51l-213 -497l-215 497l-20 58v-523h-154v865h158l215 -502l14 -41l14 41l215 502h156v-865h-151z" />
<glyph unicode="&#x2126;" horiz-adv-x="1536" d="M874 0v186q67 72 117 138.5t83.5 138.5t50 153t16.5 181q0 83 -19 164.5t-63 146.5t-115 105t-176 40t-176 -40t-115 -105t-63 -147t-19 -166q0 -99 16.5 -180t50 -152.5t83.5 -138t117 -138.5v-186h-498v205h291q-133 99 -207 247t-74 347q0 77 13.5 155.5t43 152 t75.5 137.5t112 111.5t153 75t197 27.5t197 -27.5t153 -75t112 -111.5t75.5 -137.5t43 -152t13.5 -155.5q0 -198 -75.5 -347t-207.5 -247h293v-205h-498z" />
<glyph unicode="&#x212e;" horiz-adv-x="1597" d="M809 -25q-96 0 -186 23.5t-168.5 68t-143.5 109.5t-111.5 147.5t-72 181.5t-25.5 212q0 125 27.5 229.5t76 187.5t115.5 145t146.5 103t167.5 61.5t180 20.5q130 0 250 -47t213 -141t151 -233.5t66 -325.5h-1071v-449q24 -35 62.5 -66t88 -54t108.5 -36.5t126 -13.5 q146 0 272 67t224 218l104 -64q-52 -78 -111 -141.5t-131 -108.5t-160 -69.5t-198 -24.5zM1184 1182q-29 34 -69 63t-88.5 50.5t-104 33.5t-113.5 12q-121 0 -217 -36.5t-168 -104.5v-364l760 2v344z" />
<glyph unicode="&#x2153;" horiz-adv-x="1485" d="M20 -25l979 1483h195l-979 -1483h-195zM143 580v684h-113v125q32 0 55.5 3t40.5 10t29 17t21 25h135v-864h-168zM1112 -16q-119 0 -199 66.5t-114 185.5l168 45q8 -36 24 -62.5t36 -43t43.5 -24.5t47.5 -8q53 0 88 28.5t35 82.5q0 21 -7.5 41t-23.5 35.5t-41 25t-59 9.5 h-64v159h62q54 0 78 28t24 69q0 42 -25 70t-73 28t-75.5 -28t-43.5 -73l-164 60q37 91 110.5 146t176.5 55q64 0 114 -20t84.5 -54.5t53 -79.5t18.5 -96q0 -53 -27.5 -101t-72.5 -77q62 -28 96.5 -82t34.5 -117q0 -62 -22.5 -111.5t-62.5 -84t-96.5 -53.5t-123.5 -19z" />
<glyph unicode="&#x2154;" horiz-adv-x="1812" d="M348 -25l979 1483h195l-979 -1483h-195zM51 580q0 92 24 167.5t65.5 135.5t96 105t115.5 77q25 13 47 26t39 28t27 34t10 45q0 40 -30 70t-87 30q-58 0 -94.5 -35t-48.5 -98l-166 39q11 55 39 101.5t68.5 80.5t92 53t109.5 19q69 0 123.5 -19.5t92.5 -54.5t58.5 -83.5 t20.5 -106.5q0 -57 -18 -98t-49.5 -72t-74 -56t-91.5 -50q-71 -38 -109.5 -83.5t-60.5 -95.5h401v-159h-600zM1440 -16q-119 0 -199 66.5t-114 185.5l168 45q8 -36 24 -62.5t36 -43t43.5 -24.5t47.5 -8q53 0 88 28.5t35 82.5q0 21 -7.5 41t-23.5 35.5t-41 25t-59 9.5h-64 v159h62q54 0 78 28t24 69q0 42 -25 70t-73 28t-75.5 -28t-43.5 -73l-164 60q37 91 110.5 146t176.5 55q64 0 114 -20t84.5 -54.5t53 -79.5t18.5 -96q0 -53 -27.5 -101t-72.5 -77q62 -28 96.5 -82t34.5 -117q0 -62 -22.5 -111.5t-62.5 -84t-96.5 -53.5t-123.5 -19z" />
<glyph unicode="&#x215b;" horiz-adv-x="1485" d="M20 -25l979 1483h195l-979 -1483h-195zM143 580v684h-113v125q32 0 55.5 3t40.5 10t29 17t21 25h135v-864h-168zM1110 -16q-69 0 -125.5 20t-97 56t-62.5 87.5t-22 114.5q0 68 34.5 121.5t89.5 87.5q-43 31 -65.5 73t-22.5 95q0 54 19.5 98t55 75.5t85.5 49t111 17.5 t111 -17.5t85.5 -49t54.5 -75.5t19 -98q0 -48 -22 -92.5t-64 -75.5q56 -34 89.5 -88.5t33.5 -120.5q0 -63 -22 -114.5t-62.5 -87.5t-97 -56t-125.5 -20zM1110 139q62 0 99.5 34.5t37.5 88.5q0 27 -10 50.5t-28 41t-43 27.5t-56 10q-30 0 -55 -10t-43.5 -27.5t-28.5 -41 t-10 -50.5t10 -49.5t28.5 -39t43.5 -25.5t55 -9zM1110 547q49 0 76.5 27t27.5 65q0 37 -27.5 64.5t-76.5 27.5q-23 0 -42 -7.5t-33 -20t-22 -29.5t-8 -35q0 -19 8 -36t22 -29.5t33 -19.5t42 -7z" />
<glyph unicode="&#x215c;" horiz-adv-x="1731" d="M266 -25l979 1483h195l-979 -1483h-195zM338 563q-119 0 -199 66.5t-114 185.5l168 45q17 -72 60 -104.5t91 -32.5q53 0 88 28.5t35 82.5q0 21 -7.5 41t-23.5 35.5t-41 24.5t-59 9h-64v160h62q54 0 78 28t24 68q0 42 -25 70t-73 28t-75.5 -27.5t-43.5 -72.5l-164 59 q37 91 110.5 146t176.5 55q64 0 114 -20t84.5 -54.5t53 -79.5t18.5 -96q0 -52 -27.5 -100.5t-72.5 -77.5q62 -28 96.5 -82t34.5 -117q0 -61 -22.5 -110.5t-62.5 -84.5t-96.5 -54t-123.5 -19zM1356 -16q-69 0 -125.5 20t-97 56t-62.5 87.5t-22 114.5q0 68 34.5 121.5 t89.5 87.5q-43 31 -65.5 73t-22.5 95q0 54 19.5 98t55 75.5t85.5 49t111 17.5t111 -17.5t85.5 -49t54.5 -75.5t19 -98q0 -48 -22 -92.5t-64 -75.5q56 -34 89.5 -88.5t33.5 -120.5q0 -63 -22 -114.5t-62.5 -87.5t-97 -56t-125.5 -20zM1356 139q62 0 99.5 34.5t37.5 88.5 q0 27 -10 50.5t-28 41t-43 27.5t-56 10q-30 0 -55 -10t-43.5 -27.5t-28.5 -41t-10 -50.5t10 -49.5t28.5 -39t43.5 -25.5t55 -9zM1356 547q49 0 76.5 27t27.5 65q0 37 -27.5 64.5t-76.5 27.5q-23 0 -42 -7.5t-33 -20t-22 -29.5t-8 -35q0 -19 8 -36t22 -29.5t33 -19.5t42 -7z " />
<glyph unicode="&#x215d;" horiz-adv-x="1731" d="M266 -25l979 1483h195l-979 -1483h-195zM326 565q-53 0 -97 8.5t-79.5 21.5t-62 29t-44.5 31l96 140l36 -24.5t41.5 -22.5t49.5 -16.5t60 -6.5q36 0 65.5 10.5t51 29.5t33 45t11.5 58q0 63 -35 95t-92 32q-48 0 -80 -25.5t-55 -68.5l-151 78l24 465h508v-160h-354 l-10 -164q28 17 61.5 26t67.5 9q73 0 127.5 -25t90 -65t53 -90.5t17.5 -102.5q0 -71 -24.5 -127.5t-68.5 -96.5t-105.5 -61.5t-134.5 -21.5zM1356 -16q-69 0 -125.5 20t-97 56t-62.5 87.5t-22 114.5q0 68 34.5 121.5t89.5 87.5q-43 31 -65.5 73t-22.5 95q0 54 19.5 98 t55 75.5t85.5 49t111 17.5t111 -17.5t85.5 -49t54.5 -75.5t19 -98q0 -48 -22 -92.5t-64 -75.5q56 -34 89.5 -88.5t33.5 -120.5q0 -63 -22 -114.5t-62.5 -87.5t-97 -56t-125.5 -20zM1356 139q62 0 99.5 34.5t37.5 88.5q0 27 -10 50.5t-28 41t-43 27.5t-56 10q-30 0 -55 -10 t-43.5 -27.5t-28.5 -41t-10 -50.5t10 -49.5t28.5 -39t43.5 -25.5t55 -9zM1356 547q49 0 76.5 27t27.5 65q0 37 -27.5 64.5t-76.5 27.5q-23 0 -42 -7.5t-33 -20t-22 -29.5t-8 -35q0 -19 8 -36t22 -29.5t33 -19.5t42 -7z" />
<glyph unicode="&#x215e;" horiz-adv-x="1546" d="M82 -25l979 1483h195l-979 -1483h-195zM190 580q1 109 16 203.5t42.5 180t66.5 164.5t88 156h-393v160h590v-150q-70 -81 -116 -176.5t-73 -191.5t-38.5 -186t-12.5 -160h-170zM1172 -16q-69 0 -125.5 20t-97 56t-62.5 87.5t-22 114.5q0 68 34.5 121.5t89.5 87.5 q-43 31 -65.5 73t-22.5 95q0 54 19.5 98t55 75.5t85.5 49t111 17.5t111 -17.5t85.5 -49t54.5 -75.5t19 -98q0 -48 -22 -92.5t-64 -75.5q56 -34 89.5 -88.5t33.5 -120.5q0 -63 -22 -114.5t-62.5 -87.5t-97 -56t-125.5 -20zM1172 139q62 0 99.5 34.5t37.5 88.5q0 27 -10 50.5 t-28 41t-43 27.5t-56 10q-30 0 -55 -10t-43.5 -27.5t-28.5 -41t-10 -50.5t10 -49.5t28.5 -39t43.5 -25.5t55 -9zM1172 547q49 0 76.5 27t27.5 65q0 37 -27.5 64.5t-76.5 27.5q-23 0 -42 -7.5t-33 -20t-22 -29.5t-8 -35q0 -19 8 -36t22 -29.5t33 -19.5t42 -7z" />
<glyph unicode="&#x2202;" horiz-adv-x="1194" d="M451 1458q169 -18 289 -76t195.5 -156t110.5 -234t35 -310q0 -91 -13.5 -179t-42 -166.5t-74 -145t-109 -114.5t-146 -75t-186.5 -27q-101 0 -184 30.5t-142 86.5t-91 135.5t-32 178.5q0 114 41 205.5t110 156t158 99t185 34.5q61 0 109 -11t85.5 -30.5t66 -46.5 t52.5 -59q0 135 -39.5 229t-105 153t-150 87.5t-174.5 33.5zM571 696q-66 0 -120 -20t-92 -56t-59 -86.5t-21 -111.5q0 -57 17 -102t48.5 -76t75.5 -47.5t98 -16.5q70 0 127 21t97 58.5t61.5 89.5t21.5 114q0 117 -66.5 175t-187.5 58z" />
<glyph unicode="&#x2206;" horiz-adv-x="1425" d="M86 0l518 1434h219l516 -1434h-1253zM764 1006q-5 16 -12 36.5l-14 42t-13 43t-10 39.5l-22.5 -80.5t-26.5 -80.5l-287 -801h670z" />
<glyph unicode="&#x220f;" horiz-adv-x="1468" d="M1071 -287v1516h-674v-1516h-213v1721h1100v-1721h-213z" />
<glyph unicode="&#x2211;" horiz-adv-x="1253" d="M92 -287v193l504 688l-475 647v193h1022v-205h-750l469 -635l-495 -676h815v-205h-1090z" />
<glyph unicode="&#x2212;" horiz-adv-x="1290" d="M164 600v205h962v-205h-962z" />
<glyph unicode="&#x2215;" horiz-adv-x="682" d="M-246 -25l979 1483h195l-979 -1483h-195z" />
<glyph unicode="&#x2219;" horiz-adv-x="457" d="M227 565q-33 0 -61 12t-48.5 32.5t-32 47.5t-11.5 58t11.5 58.5t32 48t48.5 32.5t61 12q32 0 60.5 -12t49.5 -32.5t33.5 -48t12.5 -58.5t-12.5 -58t-33.5 -47.5t-49.5 -32.5t-60.5 -12z" />
<glyph unicode="&#x221a;" horiz-adv-x="1139" d="M1077 1434l-436 -1434h-180l-369 700h225l211 -409l330 1143h219z" />
<glyph unicode="&#x221e;" horiz-adv-x="2048" d="M1489 242q-85 0 -155 22.5t-127 62.5t-102.5 93t-80.5 115q-36 -62 -81 -115t-102 -93t-127 -62.5t-155 -22.5q-102 0 -191 31.5t-154.5 92.5t-103.5 149t-38 202t38 202.5t103.5 149.5t154.5 93t191 32q85 0 155 -23t127 -63t102 -94t81 -115q35 61 80 115t101.5 94 t126 63t153.5 23q103 0 193 -32t156 -93t104 -149.5t38 -202.5t-38 -202t-103.5 -149t-154.5 -92.5t-191 -31.5zM1479 442q60 0 112 18.5t90.5 53.5t60 86.5t21.5 116.5t-21.5 116.5t-60 87t-90.5 54t-112 18.5q-62 0 -114.5 -22.5t-97.5 -61t-82.5 -88.5t-68.5 -104 q31 -55 68.5 -104.5t82.5 -87.5t97.5 -60.5t114.5 -22.5zM569 442q61 0 114 22.5t98 60.5t82.5 87.5t68.5 104.5q-31 54 -68.5 104t-82.5 88.5t-98 61t-114 22.5q-60 0 -112 -18.5t-90.5 -54t-60 -87t-21.5 -116.5t21.5 -116.5t60 -86.5t90.5 -53.5t112 -18.5z" />
<glyph unicode="&#x222b;" horiz-adv-x="860" d="M297 -287q-66 0 -117.5 13t-97.5 36v168q48 -17 82.5 -24.5t66.5 -7.5q52 0 72.5 27t20.5 67v1222q0 72 20 119.5t53 75t76 38.5t90 11q66 0 117.5 -13t97.5 -36v-168q-48 17 -82.5 25t-66.5 8q-26 0 -44 -7t-28.5 -20t-15 -30t-4.5 -37v-1223q0 -72 -20 -119.5t-53 -75 t-76.5 -38.5t-90.5 -11z" />
<glyph unicode="&#x2248;" horiz-adv-x="1290" d="M852 752q-65 0 -121 18.5t-105.5 40.5l-95 40.5t-90.5 18.5q-55 0 -86.5 -33t-36.5 -85h-153q0 64 15 122.5t48 103t85 71t126 26.5q65 0 121 -18.5t105.5 -41t95 -41t90.5 -18.5q56 0 87 33.5t36 85.5h153q0 -64 -15 -122.5t-47.5 -103t-84.5 -71t-127 -26.5zM852 332 q-65 0 -121 18.5t-105.5 41t-95 41t-90.5 18.5q-55 0 -86.5 -33.5t-36.5 -85.5h-153q0 64 15 122.5t48 103t85 71t126 26.5q65 0 121 -18.5t105.5 -40.5l95 -40.5t90.5 -18.5q56 0 87 33t36 85h153q0 -64 -15 -122.5t-47.5 -103t-84.5 -71t-127 -26.5z" />
<glyph unicode="&#x2260;" horiz-adv-x="1290" d="M614 399l-82 -178h-225l82 178h-225v209h323l88 189h-411v209h508l84 178h225l-84 -178h229v-209h-325l-88 -189h413v-209h-512z" />
<glyph unicode="&#x2264;" horiz-adv-x="1290" d="M1126 352l-962 350v181l962 350v-215l-671 -225l671 -226v-215zM164 0v205h962v-205h-962z" />
<glyph unicode="&#x2265;" horiz-adv-x="1290" d="M164 352v215l672 226l-672 225v215l962 -350v-181zM164 0v205h962v-205h-962z" />
<glyph unicode="&#x25ca;" horiz-adv-x="1229" d="M524 -25l-411 742l411 741h181l411 -741l-411 -742h-181zM614 1188l-282 -471l282 -471l283 471z" />
<glyph unicode="&#x25cc;" horiz-adv-x="1319" d="M113 735q0 29 18.5 46.5t46.5 17.5t45 -17.5t17 -46.5q0 -28 -17 -44.5t-45 -16.5t-46.5 16.5t-18.5 44.5zM1079 735q0 29 17 46.5t45 17.5q26 0 45.5 -17.5t19.5 -46.5q0 -28 -19.5 -44.5t-45.5 -16.5q-28 0 -45 16.5t-17 44.5zM598 254q0 28 17 45.5t44 17.5 q28 0 45 -17.5t17 -45.5t-17 -46t-45 -18q-27 0 -44 18t-17 46zM598 1217q0 29 17 47t44 18q28 0 45 -18t17 -47q0 -28 -17 -45t-45 -17q-27 0 -44 17t-17 45zM938 1077q0 28 17 45t44 17q28 0 46 -17t18 -45q0 -29 -18 -46t-46 -17q-27 0 -44 17t-17 46zM256 1077 q0 28 18 45t45 17q28 0 45 -17t17 -45q0 -29 -17 -46t-45 -17q-27 0 -45 17t-18 46zM938 395q0 28 17 46t44 18q28 0 46 -18t18 -46t-18 -44.5t-46 -16.5q-27 0 -44 16.5t-17 44.5zM256 395q0 28 18 46t45 18q28 0 45 -18t17 -46t-17 -44.5t-45 -16.5q-27 0 -45 16.5 t-18 44.5zM152 551q0 28 17.5 45.5t45.5 17.5q26 0 43.5 -17.5t17.5 -45.5t-17.5 -46t-43.5 -18q-28 0 -45.5 19t-17.5 45zM1042 920q0 26 18 45.5t44 19.5q28 0 45.5 -19.5t17.5 -45.5t-17.5 -44t-45.5 -18q-26 0 -44 18t-18 44zM782 291q0 28 18 45.5t44 17.5 q28 0 45.5 -17.5t17.5 -45.5t-17.5 -46t-45.5 -18q-26 0 -44 18t-18 46zM412 1180q0 29 17.5 47t45.5 18q26 0 44 -18t18 -47q0 -26 -18 -44t-44 -18q-28 0 -45.5 18t-17.5 44zM780 1180q0 28 18.5 45.5t43.5 17.5q29 0 47 -17.5t18 -45.5q0 -26 -18 -44t-47 -18 q-28 0 -45 18t-17 44zM152 920q0 27 17.5 45t45.5 18t46 -18t18 -45q0 -26 -19.5 -45t-44.5 -19q-28 0 -45.5 19t-17.5 45zM1040 553q0 26 19 43.5t45 17.5q28 0 45.5 -17.5t17.5 -43.5q0 -28 -17.5 -46t-45.5 -18t-46 18t-18 46zM412 293q0 26 18 43.5t47 17.5 q26 0 44 -17.5t18 -43.5q0 -28 -19.5 -47t-42.5 -19q-29 0 -47 19t-18 47z" />
<glyph unicode="&#xe000;" horiz-adv-x="1045" d="M0 1045h1045v-1045h-1045v1045z" />
<glyph unicode="&#xe10a;" horiz-adv-x="786" d="M393 -14q-92 0 -153 39.5t-97 103.5t-50.5 143.5t-14.5 159.5q0 50 6 103t20.5 102.5t38 93.5t58.5 77t82.5 52t109.5 19q92 0 153 -40t97 -103.5t51 -143.5t15 -160q0 -50 -6 -102.5t-20 -102t-37.5 -93.5t-58.5 -77t-83 -52t-111 -19zM393 150q42 0 70 26t44.5 66.5 t23 91t6.5 98.5q0 51 -7 102t-23.5 91t-44 65t-69.5 25t-69.5 -26t-44 -66.5t-23 -91t-6.5 -99.5q0 -51 7 -101.5t23.5 -90.5t44 -65t68.5 -25z" />
<glyph unicode="&#xe10b;" horiz-adv-x="410" d="M133 0v684h-113v125q32 0 55.5 3t40.5 10t29 17t21 25h135v-864h-168z" />
<glyph unicode="&#xe10c;" horiz-adv-x="731" d="M51 0q0 92 24 167.5t65.5 135.5t96 105t115.5 77q25 13 47 26t39 28.5t27 34.5t10 44q0 41 -30 71t-87 30q-58 0 -94.5 -35t-48.5 -98l-166 39q11 54 39 100.5t68.5 80.5t92 53.5t109.5 19.5q69 0 123.5 -20t92.5 -55t58.5 -83.5t20.5 -106.5q0 -57 -18 -97.5 t-49.5 -71.5t-74 -56.5t-91.5 -50.5q-71 -37 -109.5 -83t-60.5 -95h401v-160h-600z" />
<glyph unicode="&#xe10d;" horiz-adv-x="711" d="M338 -16q-119 0 -199 66.5t-114 185.5l168 45q8 -36 24 -62.5t36 -43t43.5 -24.5t47.5 -8q53 0 88 28.5t35 82.5q0 21 -7.5 41t-23.5 35.5t-41 25t-59 9.5h-64v159h62q54 0 78 28t24 69q0 42 -25 70t-73 28t-75.5 -28t-43.5 -73l-164 60q37 91 110.5 146t176.5 55 q64 0 114 -20t84.5 -54.5t53 -79.5t18.5 -96q0 -53 -27.5 -101t-72.5 -77q62 -28 96.5 -82t34.5 -117q0 -62 -22.5 -111.5t-62.5 -84t-96.5 -53.5t-123.5 -19z" />
<glyph unicode="&#xe10e;" horiz-adv-x="770" d="M449 0v176h-435v109l441 581h157v-532h111v-158h-111v-176h-163zM449 334v291l-224 -291h224z" />
<glyph unicode="&#xe10f;" horiz-adv-x="717" d="M326 -14q-53 0 -97 8.5t-79.5 21.5t-62 29t-44.5 31l96 139l36 -24.5t41.5 -22.5t49.5 -16.5t60 -6.5q36 0 65.5 10.5t51 30t33 45.5t11.5 58q0 63 -35 95t-92 32q-48 0 -80 -25.5t-55 -68.5l-151 77l24 465h508v-159h-354l-10 -164q28 17 61.5 25.5t67.5 8.5 q73 0 127.5 -25t90 -65t53 -90.5t17.5 -101.5q0 -71 -24.5 -128t-68.5 -96.5t-105.5 -61t-134.5 -21.5z" />
<glyph unicode="&#xe110;" horiz-adv-x="725" d="M379 -14q-78 0 -136 26t-96 72t-56.5 109.5t-18.5 138.5q0 106 29 197.5t90 162.5t153.5 119t220.5 68v-160q-45 -8 -89 -23t-83 -39t-70 -58.5t-49 -82.5q25 14 61 22.5t77 8.5q58 0 108 -19.5t86.5 -56t57 -88.5t20.5 -117q0 -64 -22 -115.5t-62 -88t-96.5 -56.5 t-124.5 -20zM379 145q60 0 98.5 33t38.5 88q0 59 -38.5 90t-98.5 31t-96.5 -31t-36.5 -90q0 -55 36.5 -88t96.5 -33z" />
<glyph unicode="&#xe111;" horiz-adv-x="621" d="M190 0q1 109 16 204t42.5 180.5t66.5 164.5t88 156h-393v159h590v-149q-70 -81 -116 -176.5t-73 -192t-38.5 -186.5t-12.5 -160h-170z" />
<glyph unicode="&#xe112;" horiz-adv-x="748" d="M373 -16q-69 0 -125.5 20t-97 56t-62.5 87.5t-22 114.5q0 68 34.5 121.5t89.5 87.5q-43 31 -65.5 73t-22.5 95q0 54 19.5 98t55 75.5t85.5 49t111 17.5t111 -17.5t85.5 -49t54.5 -75.5t19 -98q0 -48 -22 -92.5t-64 -75.5q56 -34 89.5 -88.5t33.5 -120.5q0 -63 -22 -114.5 t-62.5 -87.5t-97 -56t-125.5 -20zM373 139q62 0 99.5 34.5t37.5 88.5q0 27 -10 50.5t-28 41t-43 27.5t-56 10q-30 0 -55 -10t-43.5 -27.5t-28.5 -41t-10 -50.5t10 -49.5t28.5 -39t43.5 -25.5t55 -9zM373 547q49 0 76.5 27t27.5 65q0 37 -27.5 64.5t-76.5 27.5 q-23 0 -42 -7.5t-33 -20t-22 -29.5t-8 -35q0 -19 8 -36t22 -29.5t33 -19.5t42 -7z" />
<glyph unicode="&#xe113;" horiz-adv-x="725" d="M186 145q42 3 83 14t77 34t65.5 61.5t47.5 97.5q-23 -17 -58 -27t-73 -10q-64 0 -116.5 19.5t-90.5 56t-59 88.5t-21 117q0 64 22.5 116t63.5 89t97 57.5t124 20.5q80 0 139 -25t98 -70t58 -106.5t19 -134.5q0 -121 -29 -221t-88 -172.5t-148.5 -115t-210.5 -48.5v159z M346 475q65 0 102 32t37 91q0 56 -37.5 88.5t-99.5 32.5q-60 0 -97.5 -33t-37.5 -90q0 -59 35.5 -90t97.5 -31z" />
<glyph unicode="&#xe11e;" horiz-adv-x="786" d="M393 565q-62 0 -109 18.5t-82 50t-58.5 75t-38.5 93t-21 103.5t-6 107q0 75 14.5 154t50 144t96.5 106.5t154 41.5q92 0 153 -39.5t97 -103.5t51 -143.5t15 -159.5q0 -50 -6 -102.5t-20 -102t-37.5 -93.5t-58.5 -77t-83 -52.5t-111 -19.5zM393 729q42 0 70 26t44.5 67 t23 91.5t6.5 98.5q0 51 -7 101.5t-23.5 90.5t-44 65t-69.5 25t-69.5 -25.5t-44 -66t-23 -91t-6.5 -99.5q0 -52 7 -102.5t23.5 -90.5t44 -65t68.5 -25z" />
<glyph unicode="&#xe11f;" horiz-adv-x="410" d="M133 580v684h-113v125q32 0 55.5 3t40.5 10t29 17t21 25h135v-864h-168z" />
<glyph unicode="&#xe120;" horiz-adv-x="731" d="M51 580q0 92 24 167.5t65.5 135.5t96 105t115.5 77q25 13 47 26t39 28t27 34t10 45q0 40 -30 70t-87 30q-58 0 -94.5 -35t-48.5 -98l-166 39q11 55 39 101.5t68.5 80.5t92 53t109.5 19q69 0 123.5 -19.5t92.5 -54.5t58.5 -83.5t20.5 -106.5q0 -57 -18 -98t-49.5 -72 t-74 -56t-91.5 -50q-71 -38 -109.5 -83.5t-60.5 -95.5h401v-159h-600z" />
<glyph unicode="&#xe121;" horiz-adv-x="711" d="M338 563q-119 0 -199 66.5t-114 185.5l168 45q17 -72 60 -104.5t91 -32.5q53 0 88 28.5t35 82.5q0 21 -7.5 41t-23.5 35.5t-41 24.5t-59 9h-64v160h62q54 0 78 28t24 68q0 42 -25 70t-73 28t-75.5 -27.5t-43.5 -72.5l-164 59q37 91 110.5 146t176.5 55q64 0 114 -20 t84.5 -54.5t53 -79.5t18.5 -96q0 -52 -27.5 -100.5t-72.5 -77.5q62 -28 96.5 -82t34.5 -117q0 -61 -22.5 -110.5t-62.5 -84.5t-96.5 -54t-123.5 -19z" />
<glyph unicode="&#xe122;" horiz-adv-x="770" d="M449 580v176h-435v108l441 582h157v-533h111v-157h-111v-176h-163zM449 913v291l-224 -291h224z" />
<glyph unicode="&#xe123;" horiz-adv-x="717" d="M326 565q-53 0 -97 8.5t-79.5 21.5t-62 29t-44.5 31l96 140l36 -24.5t41.5 -22.5t49.5 -16.5t60 -6.5q36 0 65.5 10.5t51 29.5t33 45t11.5 58q0 63 -35 95t-92 32q-48 0 -80 -25.5t-55 -68.5l-151 78l24 465h508v-160h-354l-10 -164q28 17 61.5 26t67.5 9q73 0 127.5 -25 t90 -65t53 -90.5t17.5 -102.5q0 -71 -24.5 -127.5t-68.5 -96.5t-105.5 -61.5t-134.5 -21.5z" />
<glyph unicode="&#xe124;" horiz-adv-x="725" d="M379 565q-78 0 -136 26t-96 72t-56.5 109.5t-18.5 138.5q0 107 29 198.5t90 162t153.5 118.5t220.5 68v-160q-45 -8 -89 -22.5t-83 -38.5t-70 -58.5t-49 -82.5q25 14 61 22t77 8q58 0 108 -19.5t86.5 -55.5t57 -88t20.5 -117q0 -64 -22 -116t-62 -88.5t-96.5 -56.5 t-124.5 -20zM379 725q60 0 98.5 32.5t38.5 88.5q0 59 -38.5 90t-98.5 31t-96.5 -31t-36.5 -90q0 -56 36.5 -88.5t96.5 -32.5z" />
<glyph unicode="&#xe125;" horiz-adv-x="621" d="M190 580q1 109 16 203.5t42.5 180t66.5 164.5t88 156h-393v160h590v-150q-70 -81 -116 -176.5t-73 -191.5t-38.5 -186t-12.5 -160h-170z" />
<glyph unicode="&#xe126;" horiz-adv-x="748" d="M373 563q-69 0 -125.5 20t-97 56.5t-62.5 88t-22 114.5q0 68 34.5 121.5t89.5 87.5q-43 31 -65.5 73t-22.5 95q0 54 19.5 98t55 75.5t85.5 48.5t111 17t111 -17t85.5 -48.5t54.5 -75.5t19 -98q0 -48 -22 -92.5t-64 -75.5q56 -34 89.5 -88.5t33.5 -120.5q0 -63 -22 -114.5 t-62.5 -88t-97 -56.5t-125.5 -20zM373 719q62 0 99.5 34.5t37.5 88.5q0 27 -10 50.5t-28 41t-43 27.5t-56 10q-30 0 -55 -10t-43.5 -27.5t-28.5 -41t-10 -50.5t10 -49.5t28.5 -39t43.5 -25.5t55 -9zM373 1126q49 0 76.5 27t27.5 66q0 37 -27.5 64.5t-76.5 27.5 q-23 0 -42 -7.5t-33 -20t-22 -29.5t-8 -35q0 -39 30 -66t75 -27z" />
<glyph unicode="&#xe127;" horiz-adv-x="725" d="M186 725q42 3 83 13.5t77 33.5t65.5 62t47.5 98q-23 -17 -58 -27t-73 -10q-64 0 -116.5 19.5t-90.5 55.5t-59 88t-21 118q0 64 22.5 116t63.5 89t97 57t124 20q80 0 139 -25t98 -70t58 -106.5t19 -134.5q0 -120 -29 -220t-88 -172.5t-148.5 -115.5t-210.5 -49v160z M346 1055q65 0 102 32t37 91q0 55 -37.5 87.5t-99.5 32.5q-60 0 -97.5 -32.5t-37.5 -89.5q0 -59 35.5 -90t97.5 -31z" />
<glyph unicode="&#xf005;" horiz-adv-x="819" d="M309 -496q12 11 26.5 26t28.5 33.5t26.5 40t21.5 44.5q-28 0 -52 9.5t-42 26t-28.5 39.5t-10.5 50q0 31 10.5 56t28.5 42.5t42 27t50 9.5q28 0 53 -10t43.5 -28.5t29.5 -46t11 -63.5q0 -83 -43.5 -159.5t-124.5 -141.5z" />
<glyph unicode="&#xf6c3;" horiz-adv-x="819" d="M543 1495v-16q0 -151 -50.5 -269.5t-150.5 -216.5l-66 49q14 28 25 78t19 111t12 129.5t4 134.5h207z" />
<glyph horiz-adv-x="1536" d="M874 0v186q67 72 117 138.5t83.5 138.5t50 153t16.5 181q0 83 -19 164.5t-63 146.5t-115 105t-176 40t-176 -40t-115 -105t-63 -147t-19 -166q0 -99 16.5 -180t50 -152.5t83.5 -138t117 -138.5v-186h-498v205h291q-133 99 -207 247t-74 347q0 77 13.5 155.5t43 152 t75.5 137.5t112 111.5t153 75t197 27.5t197 -27.5t153 -75t112 -111.5t75.5 -137.5t43 -152t13.5 -155.5q0 -198 -75.5 -347t-207.5 -247h293v-205h-498z" />
<glyph d="M791 0v100q-51 -65 -115 -95t-135 -30q-122 0 -185 84v-368l-213 -101v1457h213v-625q0 -72 15 -119.5t42.5 -75.5t66 -39.5t85.5 -11.5q48 0 89 12.5t71.5 41t48 74.5t17.5 114v629h213v-1047h-213z" />
<glyph horiz-adv-x="471" />
<glyph horiz-adv-x="524" d="M156 0v1047h213v-1047h-213zM262 1210q-27 0 -50.5 10t-41 27.5t-27.5 41t-10 50.5t10 50.5t27.5 41t41 27.5t50.5 10t50.5 -10t41 -27.5t27.5 -41t10 -50.5t-10 -50.5t-27.5 -41t-41 -27.5t-50.5 -10z" />
</font>
</defs>
</svg>
